<?xml version="1.0" standalone="no"?>
<!DOCTYPE svg PUBLIC "-//W3C//DTD SVG 1.1//EN" "http://www.w3.org/Graphics/SVG/1.1/DTD/svg11.dtd" >
<svg>
<metadata>
Created by FontForge 20090622 at Thu Sep 20 09:22:31 2018
 By deploy user
Copyright &#194;&#169; 2015 Monotype Imaging Inc.  All rights reserved.
</metadata>
<defs>
<font id="NeueHaasUnicaPro-Heavy" horiz-adv-x="608" >
  <font-face 
    font-family="Neue Haas Unica Pro Heavy"
    font-weight="800"
    font-variant="small-caps"
    font-stretch="normal"
    units-per-em="1000"
    panose-1="2 11 9 4 3 2 6 2 2 3"
    ascent="764"
    descent="-236"
    x-height="508"
    cap-height="712"
    bbox="-177 -291 1087 979"
    underline-thickness="50"
    underline-position="-75"
    unicode-range="U+0020-U+FEFF"
  />
<missing-glyph horiz-adv-x="648" 
d="M597 740q37 -37 37 -100v-568q0 -63 -37 -100t-100 -37h-346q-63 0 -100 37t-37 100v568q0 63 37 100t100 37h346q63 0 100 -37zM101.5 690q-18.5 -18 -18.5 -50v-568q0 -31 18.5 -49.5t49.5 -18.5h346q32 0 50 18.5t18 49.5v568q0 32 -18 50t-50 18h-346
q-31 0 -49.5 -18zM460 606.5q49 -40.5 49 -111.5q0 -41 -14.5 -69.5t-55.5 -66.5q-40 -37 -52.5 -63t-12.5 -71h-111q-1 13 -1 38q0 49 12 77t51 68q29 29 38 46t9 39t-12.5 35t-34.5 13q-57 0 -57 -78h-135q1 89 51 136.5t141 47.5q86 0 135 -40.5zM251 65v119h136v-119
h-136z" />
    <glyph glyph-name="f_f" unicode="ff" horiz-adv-x="690" 
d="M601 583q-18 -17 -18 -57v-18h94v-121h-94v-387h-164v387h-165v-387h-164v387h-81v121h81v37q0 88 47 132t136 44q43 0 79 -9v-114q-10 2 -24 2q-38 0 -56 -17t-18 -57v-18h165v37q0 88 47 132t136 44q43 0 79 -9v-114q-10 2 -24 2q-38 0 -56 -17z" />
    <glyph glyph-name="f_f_i" unicode="ffi" horiz-adv-x="978" 
d="M466 677q47 44 136 44q43 0 79 -9v-114q-10 2 -24 2q-38 0 -56 -17t-18 -57v-18h94v-121h-94v-387h-164v387h-165v-387h-164v387h-81v121h81v37q0 88 47 132t136 44q43 0 79 -9v-114q-10 2 -24 2q-38 0 -56 -17t-18 -57v-18h165v37q0 88 47 132zM917 581h-166v131h166
v-131zM917 508v-508h-166v508h166z" />
    <glyph glyph-name="f_f_l" unicode="ffl" horiz-adv-x="978" 
d="M601 583q-18 -17 -18 -57v-18h94v-121h-94v-387h-164v387h-165v-387h-164v387h-81v121h81v37q0 88 47 132t136 44q43 0 79 -9v-114q-10 2 -24 2q-38 0 -56 -17t-18 -57v-18h165v37q0 88 47 132t136 44q43 0 79 -9v-114q-10 2 -24 2q-38 0 -56 -17zM751 0v712h166v-712
h-166z" />
    <glyph glyph-name="f_i" unicode="fi" horiz-adv-x="649" 
d="M137 677q47 44 136 44q43 0 79 -9v-114q-10 2 -24 2q-38 0 -56 -17t-18 -57v-18h94v-121h-94v-387h-164v387h-81v121h81v37q0 88 47 132zM588 581h-166v131h166v-131zM588 508v-508h-166v508h166z" />
    <glyph glyph-name="f_l" unicode="fl" horiz-adv-x="649" 
d="M272 583q-18 -17 -18 -57v-18h94v-121h-94v-387h-164v387h-81v121h81v37q0 88 47 132t136 44q43 0 79 -9v-114q-10 2 -24 2q-38 0 -56 -17zM422 0v712h166v-712h-166z" />
    <glyph glyph-name=".notdef" horiz-adv-x="648" 
d="M597 740q37 -37 37 -100v-568q0 -63 -37 -100t-100 -37h-346q-63 0 -100 37t-37 100v568q0 63 37 100t100 37h346q63 0 100 -37zM101.5 690q-18.5 -18 -18.5 -50v-568q0 -31 18.5 -49.5t49.5 -18.5h346q32 0 50 18.5t18 49.5v568q0 32 -18 50t-50 18h-346
q-31 0 -49.5 -18zM460 606.5q49 -40.5 49 -111.5q0 -41 -14.5 -69.5t-55.5 -66.5q-40 -37 -52.5 -63t-12.5 -71h-111q-1 13 -1 38q0 49 12 77t51 68q29 29 38 46t9 39t-12.5 35t-34.5 13q-57 0 -57 -78h-135q1 89 51 136.5t141 47.5q86 0 135 -40.5zM251 65v119h136v-119
h-136z" />
    <glyph glyph-name="NULL" horiz-adv-x="600" 
 />
    <glyph glyph-name="NULL" horiz-adv-x="600" 
 />
    <glyph glyph-name="space" unicode=" " horiz-adv-x="230" 
 />
    <glyph glyph-name="exclam" unicode="!" horiz-adv-x="346" 
d="M106 210l-31 502h195l-30 -502h-134zM85 0v147h176v-147h-176z" />
    <glyph glyph-name="quotedbl" unicode="&#x22;" horiz-adv-x="463" 
d="M70 432l-18 280h158l-19 -280h-121zM272 432l-18 280h158l-19 -280h-121z" />
    <glyph glyph-name="numbersign" unicode="#" horiz-adv-x="695" 
d="M526 278h97l-18 -115h-97l-26 -163h-135l26 163h-106l-26 -163h-135l26 163h-97l18 115h97l19 119h-97l18 115h97l26 162h135l-26 -162h106l26 162h135l-26 -162h97l-18 -115h-97zM304 397l-19 -119h106l19 119h-106z" />
    <glyph glyph-name="dollar" unicode="$" horiz-adv-x="628" 
d="M532 54.5q-58 -54.5 -161 -66.5v-87h-118v86q-104 14 -160 73t-56 159h167q0 -109 113 -109q54 0 80.5 20t26.5 56q0 24 -15.5 39.5t-42.5 25.5t-82 25q-74 21 -122 41.5t-81 61t-33 105.5q0 82 54.5 135.5t150.5 66.5v78h118v-78q97 -12 149 -67.5t52 -151.5h-163
q0 101 -101 101q-45 0 -70.5 -18.5t-25.5 -51.5q0 -25 14 -40t40 -24t80 -22q78 -20 127.5 -40.5t83 -63t33.5 -113.5q0 -86 -58 -140.5z" />
    <glyph glyph-name="percent" unicode="%" horiz-adv-x="933" 
d="M231 -30l371 734h100l-371 -734h-100zM346.5 640q45.5 -53 45.5 -151t-45.5 -151t-128.5 -53t-128 53t-45 151t45 151t128 53t128.5 -53zM165 489q0 -115 53 -115t53 115q0 114 -53 114t-53 -114zM842.5 336q45.5 -53 45.5 -151t-45.5 -151t-128.5 -53t-128 53t-45 151
t45 151t128 53t128.5 -53zM661 185q0 -114 53 -114t53 114q0 115 -53 115t-53 -115z" />
    <glyph glyph-name="ampersand" unicode="&#x26;" horiz-adv-x="772" 
d="M518 51q-39 -32 -93 -49.5t-116 -17.5q-129 0 -199 56.5t-70 153.5q0 134 143 203q-41 41 -57 75.5t-16 79.5q0 52 26.5 92t75 62t111.5 22q97 0 154.5 -45.5t57.5 -121.5q0 -57 -30.5 -103t-95.5 -85l110 -110q24 46 24 129h160q-1 -141 -75 -239l153 -153h-212z
M280 591q-16 -16 -16 -44q0 -23 11 -43t42 -51q65 47 65 97q0 25 -16.5 41t-42.5 16q-27 0 -43 -16zM425 145l-152 153q-33 -21 -47.5 -43.5t-14.5 -52.5q0 -40 30 -65t82 -25q58 0 102 33z" />
    <glyph glyph-name="quotesingle" unicode="'" horiz-adv-x="262" 
d="M70 432l-18 280h158l-19 -280h-121z" />
    <glyph glyph-name="parenleft" unicode="(" horiz-adv-x="349" 
d="M239.5 519.5q-24.5 -105.5 -24.5 -222.5q0 -116 24.5 -221.5t79.5 -222.5h-134q-75 107 -109.5 213.5t-34.5 230.5q0 125 34.5 231.5t109.5 212.5h134q-55 -116 -79.5 -221.5z" />
    <glyph glyph-name="parenright" unicode=")" horiz-adv-x="349" 
d="M273.5 528.5q34.5 -106.5 34.5 -231.5q0 -124 -34.5 -230.5t-109.5 -213.5h-134q55 117 79.5 222.5t24.5 221.5q0 117 -24.5 222.5t-79.5 221.5h134q75 -106 109.5 -212.5z" />
    <glyph glyph-name="asterisk" unicode="*" horiz-adv-x="448" 
d="M388 637l37 -115l-139 -22l99 -99l-97 -71l-64 125l-63 -125l-98 71l99 99l-139 22l37 115l126 -64l-23 139h122l-23 -139z" />
    <glyph glyph-name="plus" unicode="+" horiz-adv-x="566" 
d="M507 381v-129h-159v-159h-130v159h-159v129h159v160h130v-160h159z" />
    <glyph glyph-name="comma" unicode="," horiz-adv-x="274" 
d="M135 -178h-98l69 178h-57v184h177v-184z" />
    <glyph glyph-name="hyphen" unicode="-" horiz-adv-x="337" 
d="M30 231v122h277v-122h-277z" />
    <glyph glyph-name="period" unicode="." horiz-adv-x="274" 
d="M49 0v184h176v-184h-176z" />
    <glyph glyph-name="slash" unicode="/" horiz-adv-x="503" 
d="M30 -89l298 834h124l-297 -834h-125z" />
    <glyph glyph-name="zero" unicode="0" horiz-adv-x="623" 
d="M520 598q73 -92 73 -261q0 -170 -73 -261.5t-209 -91.5t-209 91.5t-73 261.5q0 169 73 261t209 92t209 -92zM231.5 499.5q-27.5 -56.5 -27.5 -162.5t27.5 -163.5t79.5 -57.5t80 57.5t28 163.5q0 105 -28 162t-80 57t-79.5 -56.5z" />
    <glyph glyph-name="one" unicode="1" horiz-adv-x="623" 
d="M258 0v435h-163v122q86 0 128.5 27.5t51.5 89.5h154v-674h-171z" />
    <glyph glyph-name="two" unicode="2" horiz-adv-x="623" 
d="M443 665q57 -25 88 -70.5t31 -104.5q0 -57 -21.5 -98t-58.5 -70t-95 -59q-60 -31 -90.5 -52t-41.5 -37.5t-13 -36.5h337v-137h-538q-1 9 -1 31q0 72 17 123.5t59 95.5t118 86q57 32 87 52.5t47.5 44.5t17.5 55q0 32 -20 50.5t-56 18.5q-44 0 -67 -25.5t-23 -74.5h-171
q1 112 70 172.5t191 60.5q76 0 133 -25z" />
    <glyph glyph-name="three" unicode="3" horiz-adv-x="623" 
d="M495.5 638.5q68.5 -51.5 68.5 -139.5q0 -56 -28 -91.5t-89 -57.5v-2q66 -22 96.5 -60.5t30.5 -101.5q0 -61 -32.5 -107t-91.5 -70.5t-138 -24.5q-134 0 -205.5 61.5t-71.5 178.5h173q0 -107 104 -107q41 0 65.5 20.5t24.5 54.5q0 82 -121 82h-20v128h22q52 0 82 22t30 58
q0 35 -24 55t-64 20q-45 0 -69.5 -25.5t-24.5 -75.5h-169q0 110 70 172t196 62q117 0 185.5 -51.5z" />
    <glyph glyph-name="four" unicode="4" horiz-adv-x="623" 
d="M500 140v-140h-168v140h-320v136l265 398h223v-405h104v-129h-104zM338 269v75q0 112 7 210h-2q-51 -92 -117 -191l-64 -94h176z" />
    <glyph glyph-name="five" unicode="5" horiz-adv-x="623" 
d="M229 537l-14 -136h2q53 50 134 50q66 0 117.5 -28t80 -79t28.5 -116q0 -74 -34 -129t-96 -85t-143 -30q-118 0 -188 55.5t-70 151.5h172q1 -36 26 -56.5t62 -20.5q47 0 72 27t25 79q0 51 -25.5 77.5t-69.5 26.5q-35 0 -57.5 -17.5t-29.5 -47.5l-167 11l38 404h447v-137
h-310z" />
    <glyph glyph-name="six" unicode="6" horiz-adv-x="623" 
d="M503 635.5q64 -54.5 71 -150.5h-172q-5 37 -24.5 56.5t-53.5 19.5q-51 0 -82.5 -45.5t-34.5 -140.5h2q59 65 153 65q65 0 115 -27.5t77.5 -77t27.5 -113.5q0 -70 -33 -124t-93 -84t-137 -30q-132 0 -203.5 85.5t-71.5 250.5q0 117 34.5 200t99.5 126.5t155 43.5
q106 0 170 -54.5zM255 290q-25 -29 -25 -76q0 -44 24.5 -71.5t64.5 -27.5q41 0 66 28t25 73q0 47 -24.5 75t-65.5 28q-40 0 -65 -29z" />
    <glyph glyph-name="seven" unicode="7" horiz-adv-x="623" 
d="M437 290q-56 -140 -83 -290h-184q34 161 97 302t135 230h-359v142h525v-139q-75 -105 -131 -245z" />
    <glyph glyph-name="eight" unicode="8" horiz-adv-x="623" 
d="M444 666.5q58 -23.5 90 -66t32 -98.5q0 -55 -33 -95.5t-90 -55.5v-2q63 -15 100.5 -59.5t37.5 -106.5q0 -93 -72.5 -146t-197.5 -53q-124 0 -196.5 53t-72.5 146q0 62 37.5 106.5t100.5 59.5v2q-57 15 -90 55.5t-33 95.5q0 56 32 98.5t89.5 66t132.5 23.5t133 -23.5z
M244 540.5q-25 -20.5 -25 -54.5q0 -36 24.5 -57t67.5 -21t68 21t25 57q0 34 -25 54.5t-68 20.5q-42 0 -67 -20.5zM239.5 259q-26.5 -23 -26.5 -61t26.5 -60.5t71.5 -22.5q46 0 72.5 22.5t26.5 60.5t-26.5 61t-72.5 23q-45 0 -71.5 -23z" />
    <glyph glyph-name="nine" unicode="9" horiz-adv-x="623" 
d="M109.5 38.5q-64.5 54.5 -70.5 151.5h172q4 -37 24 -56.5t54 -19.5q51 0 82 45t34 140h-2q-57 -65 -152 -65q-65 0 -115 27.5t-78 77.5t-28 113q0 70 33.5 124t93.5 84t137 30q132 0 203.5 -85.5t71.5 -250.5q0 -117 -34.5 -200t-99.5 -126.5t-155 -43.5
q-106 0 -170.5 54.5zM357.5 384q24.5 29 24.5 76q0 45 -24 72t-65 27t-65.5 -27.5t-24.5 -72.5q0 -47 24.5 -75.5t65.5 -28.5q40 0 64.5 29z" />
    <glyph glyph-name="colon" unicode=":" horiz-adv-x="274" 
d="M49 0v184h176v-184h-176zM49 324v184h176v-184h-176z" />
    <glyph glyph-name="semicolon" unicode=";" horiz-adv-x="274" 
d="M135 -178h-98l69 178h-57v184h177v-184zM49 324v184h176v-184h-176z" />
    <glyph glyph-name="less" unicode="&#x3c;" horiz-adv-x="566" 
d="M212 318v-2l295 -113v-138l-448 176v152l448 176v-138z" />
    <glyph glyph-name="equal" unicode="=" horiz-adv-x="566" 
d="M59 356v124h448v-124h-448zM59 153v124h448v-124h-448z" />
    <glyph glyph-name="greater" unicode="&#x3e;" horiz-adv-x="566" 
d="M507 241l-448 -176v138l295 113v2l-295 113v138l448 -176v-152z" />
    <glyph glyph-name="question" unicode="?" horiz-adv-x="570" 
d="M469 677q66 -50 66 -139q0 -51 -20.5 -87t-78.5 -84q-37 -32 -55.5 -55t-26 -48.5t-7.5 -65.5h-140q-2 15 -2 44q0 44 7 72.5t26 54t58 60.5q41 37 53 57.5t12 48.5q0 29 -19.5 45.5t-54.5 16.5q-86 0 -87 -98h-172q1 111 68.5 169.5t190.5 58.5q116 0 182 -50zM188 0
v147h176v-147h-176z" />
    <glyph glyph-name="at" unicode="@" horiz-adv-x="870" 
d="M652.5 661q88.5 -47 137 -133t48.5 -199q0 -86 -28.5 -145t-76 -88t-104.5 -29q-52 0 -85 20.5t-43 60.5h-2q-43 -81 -129 -81q-71 0 -111.5 51t-41.5 147q1 75 26 132.5t69.5 89t100.5 31.5q74 0 102 -64h2q2 9 4.5 23t6.5 31h123q-17 -83 -29 -164.5t-12 -120.5
q0 -29 10 -42t31 -13q40 0 67 41t27 120q0 86 -36.5 151t-104 100.5t-157.5 35.5q-102 0 -175 -44t-110.5 -121t-37.5 -173q0 -95 38 -164.5t107.5 -106t162.5 -36.5q130 0 217 52l42 -82q-108 -62 -259 -62q-122 0 -212.5 48t-139.5 138t-49 213q0 118 50.5 216.5t145 156
t220.5 57.5q117 0 205.5 -47zM375 368.5q-24 -35.5 -24 -98.5q0 -42 15.5 -65t43.5 -23q35 0 58.5 37t23.5 103q0 39 -14.5 60.5t-42.5 21.5q-36 0 -60 -35.5z" />
    <glyph glyph-name="A" unicode="A" horiz-adv-x="715" 
d="M229 151l-46 -151h-182l243 712h227l243 -712h-182l-45 151h-258zM430 341q-43 142 -72 259h-2q-30 -124 -70 -259l-14 -48h173z" />
    <glyph glyph-name="B" unicode="B" horiz-adv-x="664" 
d="M548 663q65 -49 65 -134q0 -62 -29.5 -101.5t-91.5 -61.5v-2q139 -31 139 -166q0 -91 -69 -144.5t-191 -53.5h-295v712h278q129 0 194 -49zM246 424h90q57 0 83.5 19t26.5 59t-25 58t-79 18h-96v-154zM246 135h94q60 0 86.5 19t26.5 60q0 43 -27 63t-89 20h-91v-162z" />
    <glyph glyph-name="C" unicode="C" horiz-adv-x="715" 
d="M527 694.5q69 -33.5 108 -95t42 -143.5h-179q-6 58 -40.5 90t-90.5 32q-71 0 -111.5 -59.5t-40.5 -162.5t40.5 -162.5t109.5 -59.5q56 0 91.5 33t42.5 93h181q-10 -132 -94 -204t-221 -72q-102 0 -176.5 45t-114.5 128.5t-40 198.5t40.5 198.5t115.5 128.5t177 45
q91 0 160 -33.5z" />
    <glyph glyph-name="D" unicode="D" horiz-adv-x="742" 
d="M609.5 619.5q98.5 -92.5 98.5 -263.5t-98.5 -263.5t-281.5 -92.5h-252v712h252q183 0 281.5 -92.5zM248 147h76q101 0 152.5 52.5t51.5 156.5t-51.5 156.5t-152.5 52.5h-76v-418z" />
    <glyph glyph-name="E" unicode="E" horiz-adv-x="634" 
d="M249 567v-135h308v-143h-308v-144h338v-145h-511v712h503v-145h-330z" />
    <glyph glyph-name="F" unicode="F" horiz-adv-x="591" 
d="M249 564v-164h294v-147h-294v-253h-173v712h490v-148h-317z" />
    <glyph glyph-name="G" unicode="G" horiz-adv-x="751" 
d="M534.5 698q67.5 -30 106.5 -84.5t45 -128.5h-186q-8 47 -39 72.5t-82 25.5q-76 0 -120 -61.5t-44 -168.5q0 -109 43.5 -172t119.5 -63q67 0 104 38.5t39 109.5h-153v134h315v-400h-148v72h-2q-31 -42 -81.5 -64t-116.5 -22q-92 0 -160 44t-104.5 127t-36.5 196
q0 116 42 200.5t119.5 129.5t183.5 45q88 0 155.5 -30z" />
    <glyph glyph-name="H" unicode="H" horiz-adv-x="761" 
d="M512 0v295h-263v-295h-173v712h173v-270h263v270h173v-712h-173z" />
    <glyph glyph-name="I" unicode="I" horiz-adv-x="325" 
d="M76 0v712h173v-712h-173z" />
    <glyph glyph-name="J" unicode="J" horiz-adv-x="410" 
d="M279.5 52.5q-59.5 -60.5 -186.5 -60.5q-46 0 -78 9v144q23 -5 45 -5q39 0 61.5 12t33.5 42t11 85v433h173v-471q0 -128 -59.5 -188.5z" />
    <glyph glyph-name="K" unicode="K" horiz-adv-x="690" 
d="M686 0h-218l-217 328h-2v-328h-173v712h173v-307h2l209 307h207l-259 -337z" />
    <glyph glyph-name="L" unicode="L" horiz-adv-x="580" 
d="M571 147v-147h-495v712h173v-565h322z" />
    <glyph glyph-name="M" unicode="M" horiz-adv-x="1013" 
d="M774 0v348q0 133 6 263h-2q-24 -103 -68 -259l-101 -352h-205l-101 352q-44 156 -68 259h-2q6 -130 6 -263v-348h-163v712h277l91 -316q37 -134 62 -262h2q23 123 61 262l92 316h276v-712h-163z" />
    <glyph glyph-name="N" unicode="N" horiz-adv-x="801" 
d="M476 0l-124 281q-66 149 -116 285h-2q8 -160 8 -300v-266h-166v712h249l125 -281q66 -153 116 -285h2q-8 133 -8 300v266h166v-712h-250z" />
    <glyph glyph-name="O" unicode="O" horiz-adv-x="757" 
d="M561.5 683q77.5 -45 119.5 -129t42 -198t-42 -198t-119.5 -129t-182.5 -45q-106 0 -183.5 45t-119.5 129t-42 198t42 198t119.5 129t183.5 45q105 0 182.5 -45zM258 519.5q-43 -58.5 -43 -163.5t43 -163.5t121 -58.5q77 0 120 58.5t43 163.5t-43 163.5t-120 58.5
q-78 0 -121 -58.5z" />
    <glyph glyph-name="P" unicode="P" horiz-adv-x="654" 
d="M563 649q69 -63 69 -174q0 -110 -69 -173t-202 -63h-112v-239h-173v712h285q133 0 202 -63zM249 378h88q118 0 118 97q0 98 -118 98h-88v-195z" />
    <glyph glyph-name="Q" unicode="Q" horiz-adv-x="757" 
d="M701 207q-22 -67 -64 -116l78 -88l-89 -82l-87 97q-71 -34 -161 -34q-105 0 -182.5 45t-119.5 129t-42 198t42 198t119.5 129t182.5 45q106 0 183.5 -45t119.5 -129t42 -198q0 -82 -22 -149zM437 132l-91 101l91 82l88 -99q25 56 25 135q0 107 -44 167t-123 60
t-123.5 -60t-44.5 -167t44.5 -167.5t123.5 -60.5q30 0 54 9z" />
    <glyph glyph-name="R" unicode="R" horiz-adv-x="685" 
d="M627 509q0 -65 -35 -110.5t-96 -63.5v-2q38 -13 61 -43.5t48 -99.5l69 -190h-186l-54 161q-19 56 -44.5 77.5t-75.5 21.5h-65v-260h-173v712h289q262 0 262 -203zM249 391h95q112 0 112 96q0 91 -119 91h-88v-187z" />
    <glyph glyph-name="S" unicode="S" horiz-adv-x="645" 
d="M522 668.5q72 -59.5 72 -173.5h-180q0 48 -27.5 73.5t-78.5 25.5q-43 0 -68.5 -18.5t-25.5 -48.5q0 -23 13.5 -37.5t42.5 -25.5t86 -25q85 -21 137.5 -43.5t86 -66.5t33.5 -117q0 -69 -36 -120.5t-101.5 -79.5t-153.5 -28q-140 0 -219 65t-79 183h184q0 -110 118 -110
q49 0 77 20t28 55q0 26 -13.5 41t-39.5 24.5t-83 24.5q-87 22 -139 44t-86 65t-34 115q0 65 34 114t97.5 76t147.5 27q135 0 207 -59.5z" />
    <glyph glyph-name="T" unicode="T" horiz-adv-x="627" 
d="M400 565v-565h-173v565h-218v147h609v-147h-218z" />
    <glyph glyph-name="U" unicode="U" horiz-adv-x="725" 
d="M579 59.5q-76 -75.5 -217 -75.5q-140 0 -216 75.5t-76 216.5v436h173v-432q0 -70 30.5 -107t88.5 -37q59 0 89.5 37t30.5 107v432h173v-436q0 -141 -76 -216.5z" />
    <glyph glyph-name="V" unicode="V" horiz-adv-x="663" 
d="M218 0l-214 712h181l77 -275q41 -138 68 -280h2q24 125 68 280l78 275h180l-214 -712h-226z" />
    <glyph glyph-name="W" unicode="W" horiz-adv-x="991" 
d="M609 0l-60 285q-33 147 -53 286h-2q-19 -130 -52 -286l-60 -285h-230l-144 712h168l48 -257q29 -158 46 -298h2q25 152 57 298l56 257h221l56 -257q34 -153 56 -298h2q19 148 47 298l47 257h169l-144 -712h-230z" />
    <glyph glyph-name="X" unicode="X" horiz-adv-x="669" 
d="M668 0h-204l-128 246h-2l-129 -246h-203l221 365l-209 347h199l121 -238h2l120 238h199l-209 -347z" />
    <glyph glyph-name="Y" unicode="Y" horiz-adv-x="663" 
d="M418 0h-173v269l-244 443h192l62 -129q43 -89 76 -179h2q30 86 75 179l62 129h192l-244 -443v-269z" />
    <glyph glyph-name="Z" unicode="Z" horiz-adv-x="593" 
d="M227 146v-2h345v-144h-552v150l329 416v2h-314v144h521v-150z" />
    <glyph glyph-name="bracketleft" unicode="[" horiz-adv-x="358" 
d="M221 636v-683h117v-104h-273v892h273v-105h-117z" />
    <glyph glyph-name="backslash" unicode="\" horiz-adv-x="503" 
d="M473 -89h-124l-298 834h125z" />
    <glyph glyph-name="bracketright" unicode="]" horiz-adv-x="358" 
d="M293 -151h-273v104h117v683h-117v105h273v-892z" />
    <glyph glyph-name="asciicircum" unicode="^" horiz-adv-x="520" 
d="M361 371l-100 211h-2l-100 -211h-152l166 341h174l166 -341h-152z" />
    <glyph glyph-name="underscore" unicode="_" horiz-adv-x="500" 
d="M0 -141v91h500v-91h-500z" />
    <glyph glyph-name="grave" unicode="`" horiz-adv-x="369" 
d="M319 564h-128l-141 148h191z" />
    <glyph glyph-name="a" unicode="a" horiz-adv-x="561" 
d="M448.5 471.5q57.5 -52.5 57.5 -153.5v-175q0 -90 15 -143h-150q-7 28 -7 66h-2q-58 -79 -165 -79q-81 0 -128 44t-47 112q0 67 46.5 107t155.5 57q63 10 122 14v18q0 41 -19 60.5t-52 19.5q-34 0 -52.5 -18.5t-19.5 -52.5h-160q4 77 62 126.5t170 49.5q116 0 173.5 -52.5
zM256 220q-37 -7 -53.5 -22.5t-16.5 -42.5t17 -42.5t48 -15.5q20 0 38.5 6.5t31.5 19.5q15 16 20 35.5t5 53.5v18q-48 -2 -90 -10z" />
    <glyph glyph-name="b" unicode="b" horiz-adv-x="610" 
d="M229 453q23 33 60 51t79 18q64 0 112 -33t74 -93.5t26 -141.5t-26.5 -141.5t-75.5 -93.5t-114 -33q-43 0 -80.5 20t-60.5 57h-2v-63h-160v712h166v-259h2zM243.5 358q-25.5 -38 -25.5 -104t25.5 -104t67.5 -38q43 0 69 38.5t26 103.5t-26 103.5t-69 38.5q-42 0 -67.5 -38
z" />
    <glyph glyph-name="c" unicode="c" horiz-adv-x="575" 
d="M421.5 497.5q55.5 -26.5 89 -74t38.5 -109.5h-172q-4 40 -25.5 62.5t-55.5 22.5q-43 0 -67.5 -38t-24.5 -106q0 -69 24.5 -107t68.5 -38q34 0 55.5 25t23.5 69h173q-8 -101 -76.5 -160.5t-176.5 -59.5q-80 0 -140.5 33.5t-93 94.5t-32.5 143q0 81 32.5 142t92.5 94
t140 33q71 0 126.5 -26.5z" />
    <glyph glyph-name="d" unicode="d" horiz-adv-x="610" 
d="M389 0v63h-2q-23 -37 -60.5 -57t-80.5 -20q-65 0 -114 33t-75.5 93.5t-26.5 141.5t26 141.5t74 93.5t112 33q42 0 79 -18t60 -51h2v259h166v-712h-160zM230 357.5q-26 -38.5 -26 -103.5t26 -103.5t69 -38.5q42 0 67.5 38t25.5 104t-25.5 104t-67.5 38q-43 0 -69 -38.5z
" />
    <glyph glyph-name="e" unicode="e" horiz-adv-x="584" 
d="M350 112q23 17 27 44h169q-11 -48 -45 -87.5t-87.5 -62t-119.5 -22.5q-83 0 -142.5 35t-90.5 97t-31 142q0 76 31 136.5t90.5 95t140.5 34.5q89 0 152 -43.5t90 -119.5q11 -29 15.5 -62t4.5 -79h-361q3 -67 30 -96t69 -29q35 0 58 17zM228 390.5q-25 -24.5 -32 -76.5h191
q-5 51 -31 76t-64 25q-39 0 -64 -24.5z" />
    <glyph glyph-name="f" unicode="f" horiz-adv-x="361" 
d="M272 583q-18 -17 -18 -57v-18h94v-121h-94v-387h-164v387h-81v121h81v37q0 88 47 132t136 44q43 0 79 -9v-114q-10 2 -24 2q-38 0 -56 -17z" />
    <glyph glyph-name="g" unicode="g" horiz-adv-x="602" 
d="M384 440h2v68h155v-475q0 -115 -66.5 -171.5t-188.5 -56.5q-106 0 -166 43t-68 120h161q2 -26 22 -41t54 -15q44 0 67.5 28t23.5 93v47h-2q-53 -74 -141 -74q-63 0 -109.5 31.5t-72 90t-25.5 136.5t26 136.5t73.5 90t110.5 31.5q90 0 144 -82zM226.5 357.5
q-24.5 -34.5 -24.5 -93.5q0 -58 24.5 -92.5t65.5 -34.5q43 0 68 34.5t25 92.5q0 59 -25 93.5t-68 34.5q-41 0 -65.5 -34.5z" />
    <glyph glyph-name="h" unicode="h" 
d="M229 457q25 31 60 47.5t77 16.5q87 0 136.5 -53.5t49.5 -155.5v-312h-166v294q0 49 -19 73.5t-55 24.5q-40 0 -62.5 -32.5t-22.5 -96.5v-263h-166v712h166v-255h2z" />
    <glyph glyph-name="i" unicode="i" horiz-adv-x="288" 
d="M61 0v508h166v-508h-166zM61 581v131h166v-131h-166z" />
    <glyph glyph-name="j" unicode="j" horiz-adv-x="289" 
d="M177.5 -143.5q-50.5 -46.5 -136.5 -46.5q-47 0 -80 9v116q12 -3 26 -3q39 0 57 21t18 76v479h166v-507q0 -98 -50.5 -144.5zM62 581v131h166v-131h-166z" />
    <glyph glyph-name="k" unicode="k" horiz-adv-x="566" 
d="M372 0l-143 230h-2v-230h-166v712h166v-404h2l136 200h192l-181 -237l200 -271h-204z" />
    <glyph glyph-name="l" unicode="l" horiz-adv-x="288" 
d="M61 0v712h166v-712h-166z" />
    <glyph glyph-name="m" unicode="m" horiz-adv-x="908" 
d="M804.5 467.5q47.5 -53.5 47.5 -155.5v-312h-166v294q0 49 -17.5 73.5t-49.5 24.5q-39 0 -59 -34t-20 -100v-258h-166v301q0 44 -17.5 67.5t-49.5 23.5q-39 0 -59.5 -34t-20.5 -100v-258h-166v508h155v-58h2q53 71 143 71q52 0 90.5 -22t59.5 -66q29 43 68.5 65.5
t94.5 22.5q83 0 130.5 -53.5z" />
    <glyph glyph-name="n" unicode="n" 
d="M502.5 467.5q49.5 -53.5 49.5 -155.5v-312h-166v294q0 49 -19 73.5t-55 24.5q-40 0 -62.5 -32.5t-22.5 -96.5v-263h-166v508h155v-61h2q26 35 63.5 54.5t84.5 19.5q87 0 136.5 -53.5z" />
    <glyph glyph-name="o" unicode="o" horiz-adv-x="604" 
d="M445.5 491q61.5 -33 95 -94t33.5 -143t-33.5 -143t-95 -94t-143.5 -33t-143.5 33t-95 94t-33.5 143t33.5 143t95 94t143.5 33t143.5 -33zM230.5 359.5q-25.5 -38.5 -25.5 -105.5t25.5 -105.5t71.5 -38.5t71.5 38.5t25.5 105.5t-25.5 105.5t-71.5 38.5t-71.5 -38.5z" />
    <glyph glyph-name="p" unicode="p" horiz-adv-x="610" 
d="M478 489q49 -33 75.5 -93.5t26.5 -141.5t-26 -141.5t-74 -93.5t-112 -33q-42 0 -79 18t-60 51h-2v-240h-166v693h160v-63h2q23 37 60.5 57t80.5 20q65 0 114 -33zM243.5 358q-25.5 -38 -25.5 -104t25.5 -104t67.5 -38q43 0 69 38.5t26 103.5t-26 103.5t-69 38.5
q-42 0 -67.5 -38z" />
    <glyph glyph-name="q" unicode="q" horiz-adv-x="610" 
d="M326.5 502q37.5 -20 60.5 -57h2v63h160v-693h-166v240h-2q-23 -33 -60 -51t-79 -18q-64 0 -112 33t-74 93.5t-26 141.5t26.5 141.5t75.5 93.5t114 33q43 0 80.5 -20zM230 357.5q-26 -38.5 -26 -103.5t26 -103.5t69 -38.5q42 0 67.5 38t25.5 104t-25.5 104t-67.5 38
q-43 0 -69 -38.5z" />
    <glyph glyph-name="r" unicode="r" horiz-adv-x="415" 
d="M408 510v-142q-28 5 -51 5q-63 0 -96.5 -38.5t-33.5 -111.5v-223h-166v508h154v-70h2q26 40 61 59t82 19q25 0 48 -6z" />
    <glyph glyph-name="s" unicode="s" horiz-adv-x="542" 
d="M433 481q59 -43 59 -127h-158q0 65 -68 65q-28 0 -43.5 -10.5t-15.5 -29.5q0 -15 9.5 -24.5t30.5 -17t64 -18.5q64 -17 103.5 -33.5t67.5 -50t28 -88.5q0 -74 -63 -118.5t-173 -44.5q-118 0 -180.5 45t-62.5 136h167q0 -72 78 -72q31 0 47.5 11.5t16.5 30.5
q0 18 -11.5 29t-34 19t-71.5 21q-59 15 -94.5 29.5t-60.5 46t-25 85.5q0 71 59 115t165 44q107 0 166 -43z" />
    <glyph glyph-name="t" unicode="t" horiz-adv-x="378" 
d="M353 128v-125q-17 -5 -41 -8t-43 -3q-96 0 -139.5 40t-43.5 129v226h-79v121h79v137h166v-137h96v-121h-96v-188q0 -41 15 -58.5t49 -17.5q20 0 37 5z" />
    <glyph glyph-name="u" unicode="u" 
d="M105.5 40.5q-49.5 53.5 -49.5 155.5v312h166v-294q0 -49 19 -73.5t55 -24.5q40 0 62.5 32.5t22.5 96.5v263h166v-508h-155v61h-2q-26 -35 -63.5 -54.5t-84.5 -19.5q-87 0 -136.5 53.5z" />
    <glyph glyph-name="v" unicode="v" horiz-adv-x="533" 
d="M156 0l-164 508h176l50 -186q28 -112 47 -215h2q16 89 48 215l49 186h177l-164 -508h-221z" />
    <glyph glyph-name="w" unicode="w" horiz-adv-x="848" 
d="M504 0l-41 191q-23 109 -38 213h-2q-15 -104 -38 -213l-41 -191h-227l-113 508h162l33 -187q20 -111 32 -216h2q18 119 41 217l42 186h216l42 -186q23 -98 41 -217h2q12 105 32 216l33 187h162l-113 -508h-227z" />
    <glyph glyph-name="x" unicode="x" horiz-adv-x="535" 
d="M541 0h-190l-83 163h-2l-83 -163h-189l170 261l-159 247h188l73 -145h2l73 145h189l-159 -247z" />
    <glyph glyph-name="y" unicode="y" horiz-adv-x="530" 
d="M311.5 -110.5q-31.5 -43.5 -76 -62.5t-110.5 -19q-43 0 -86 9v126q24 -8 51 -8q35 0 56 17.5t21 48.5q0 14 -5 31.5t-23 66.5l-149 409h179l49 -170q32 -118 51 -212h2q21 107 51 213l47 169h169l-169 -499q-26 -76 -57.5 -119.5z" />
    <glyph glyph-name="z" unicode="z" horiz-adv-x="502" 
d="M233 129v-2h240v-127h-444v131l231 248v2h-222v127h427v-131z" />
    <glyph glyph-name="braceleft" unicode="{" horiz-adv-x="361" 
d="M274 626q-17 -18 -17 -64v-132q0 -58 -24.5 -89.5t-76.5 -44.5v-3q52 -14 76.5 -45.5t24.5 -89.5v-132q0 -46 17 -64t59 -20v-95h-25q-77 0 -120.5 19t-62 59t-18.5 107v123q0 41 -14.5 60t-52.5 29v100q38 10 52.5 29t14.5 60v123q0 67 18.5 107t62 59t120.5 19h25v-95
q-42 -2 -59 -20z" />
    <glyph glyph-name="bar" unicode="|" horiz-adv-x="297" 
d="M77 -205v937h142v-937h-142z" />
    <glyph glyph-name="braceright" unicode="}" horiz-adv-x="361" 
d="M173.5 722q43.5 -19 61.5 -59t18 -107v-123q0 -41 14.5 -60t53.5 -29v-100q-39 -10 -53.5 -29t-14.5 -60v-123q0 -67 -18 -107t-61.5 -59t-120.5 -19h-25v95q42 2 59 20t17 64v132q0 58 24.5 89.5t76.5 45.5v3q-52 13 -76.5 44.5t-24.5 89.5v132q0 46 -17 64t-59 20v95
h25q77 0 120.5 -19z" />
    <glyph glyph-name="asciitilde" unicode="~" horiz-adv-x="600" 
d="M261 412q28 -13 65 -37q26 -18 43.5 -27t35.5 -9q29 0 46.5 21t17.5 57h106q0 -62 -22 -109t-61.5 -72.5t-89.5 -25.5q-36 0 -64.5 13t-64.5 38q-27 18 -44 26.5t-34 8.5q-29 0 -46.5 -21.5t-17.5 -56.5h-106q0 61 22 108t61.5 73t89.5 26q35 0 63 -13z" />
    <glyph glyph-name="Aacute" unicode="&#xc1;" horiz-adv-x="715" 
d="M229 151l-46 -151h-182l243 712h227l243 -712h-182l-45 151h-258zM430 341q-43 142 -72 259h-2q-30 -124 -70 -259l-14 -48h173zM262 760l78 151h191l-141 -151h-128z" />
    <glyph glyph-name="Abreve" unicode="&#x102;" horiz-adv-x="715" 
d="M229 151l-46 -151h-182l243 712h227l243 -712h-182l-45 151h-258zM430 341q-43 142 -72 259h-2q-30 -124 -70 -259l-14 -48h173zM484.5 797.5q-46.5 -40.5 -127.5 -40.5t-127.5 40.5t-50.5 113.5h106q2 -28 20.5 -43t51.5 -15t51.5 15t20.5 43h106q-4 -73 -50.5 -113.5z
" />
    <glyph glyph-name="Acircumflex" unicode="&#xc2;" horiz-adv-x="715" 
d="M229 151l-46 -151h-182l243 712h227l243 -712h-182l-45 151h-258zM430 341q-43 142 -72 259h-2q-30 -124 -70 -259l-14 -48h173zM435 911l120 -151h-138l-60 79l-60 -79h-138l120 151h156z" />
    <glyph glyph-name="Adieresis" unicode="&#xc4;" horiz-adv-x="715" 
d="M229 151l-46 -151h-182l243 712h227l243 -712h-182l-45 151h-258zM430 341q-43 142 -72 259h-2q-30 -124 -70 -259l-14 -48h173zM173 769v131h143v-131h-143zM400 769v131h142v-131h-142z" />
    <glyph glyph-name="Agrave" unicode="&#xc0;" horiz-adv-x="715" 
d="M229 151l-46 -151h-182l243 712h227l243 -712h-182l-45 151h-258zM430 341q-43 142 -72 259h-2q-30 -124 -70 -259l-14 -48h173zM453 760h-128l-141 151h191z" />
    <glyph glyph-name="Amacron" unicode="&#x100;" horiz-adv-x="715" 
d="M229 151l-46 -151h-182l243 712h227l243 -712h-182l-45 151h-258zM430 341q-43 142 -72 259h-2q-30 -124 -70 -259l-14 -48h173zM178 776v103h359v-103h-359z" />
    <glyph glyph-name="Aogonek" unicode="&#x104;" horiz-adv-x="715" 
d="M229 151l-46 -151h-182l243 712h227l243 -712h-182l-45 151h-258zM430 341q-43 142 -72 259h-2q-30 -124 -70 -259l-14 -48h173zM663.5 -42q-14.5 -18 -14.5 -37q0 -30 33 -30q18 0 35 7v-82q-42 -15 -93 -15q-61 0 -92 24t-31 67q0 32 20.5 57.5t63.5 50.5h129
q-36 -24 -50.5 -42z" />
    <glyph glyph-name="Aring" unicode="&#xc5;" horiz-adv-x="715" 
d="M229 151l-46 -151h-182l243 712h227l243 -712h-182l-45 151h-258zM430 341q-43 142 -72 259h-2q-30 -124 -70 -259l-14 -48h173zM437.5 945.5q33.5 -33.5 33.5 -80.5t-33.5 -80t-80.5 -33t-80.5 33t-33.5 80t33.5 80.5t80.5 33.5t80.5 -33.5zM317.5 904.5
q-16.5 -16.5 -16.5 -39.5t16.5 -39.5t39.5 -16.5t39.5 16.5t16.5 39.5t-16.5 39.5t-39.5 16.5t-39.5 -16.5z" />
    <glyph glyph-name="Atilde" unicode="&#xc3;" horiz-adv-x="715" 
d="M229 151l-46 -151h-182l243 712h227l243 -712h-182l-45 151h-258zM430 341q-43 142 -72 259h-2q-30 -124 -70 -259l-14 -48h173zM516 806q-32 -38 -89 -38q-23 0 -41.5 6.5t-41.5 18.5q-31 18 -51 18q-37 0 -42 -43h-89q3 67 35 105t89 38q23 0 39.5 -6t44.5 -19
q31 -18 50 -18q20 0 30 10.5t13 32.5h89q-4 -67 -36 -105z" />
    <glyph glyph-name="AE" unicode="&#xc6;" horiz-adv-x="977" 
d="M930 0h-410l-23 160h-245l-67 -160h-191l318 712h611v-145h-319l19 -135h276v-143h-256l21 -144h266v-145zM438 572h-14l-112 -269h165z" />
    <glyph glyph-name="Cacute" unicode="&#x106;" horiz-adv-x="715" 
d="M527 694.5q69 -33.5 108 -95t42 -143.5h-179q-6 58 -40.5 90t-90.5 32q-71 0 -111.5 -59.5t-40.5 -162.5t40.5 -162.5t109.5 -59.5q56 0 91.5 33t42.5 93h181q-10 -132 -94 -204t-221 -72q-102 0 -176.5 45t-114.5 128.5t-40 198.5t40.5 198.5t115.5 128.5t177 45
q91 0 160 -33.5zM271 760l78 151h191l-141 -151h-128z" />
    <glyph glyph-name="Ccaron" unicode="&#x10c;" horiz-adv-x="715" 
d="M527 694.5q69 -33.5 108 -95t42 -143.5h-179q-6 58 -40.5 90t-90.5 32q-71 0 -111.5 -59.5t-40.5 -162.5t40.5 -162.5t109.5 -59.5q56 0 91.5 33t42.5 93h181q-10 -132 -94 -204t-221 -72q-102 0 -176.5 45t-114.5 128.5t-40 198.5t40.5 198.5t115.5 128.5t177 45
q91 0 160 -33.5zM289 760l-120 151h138l60 -79l60 79h138l-120 -151h-156z" />
    <glyph glyph-name="Ccedilla" unicode="&#xc7;" horiz-adv-x="715" 
d="M596 65.5q-74 -71.5 -197 -80.5l-28 -45q15 5 33 5q39 0 63 -21t24 -57q0 -43 -33.5 -71t-94.5 -28q-65 0 -120 32l26 53q44 -22 81 -22q21 0 32.5 8t11.5 23t-11.5 24t-32.5 9q-18 0 -31 -6l-29 27l42 69q-92 7 -159 54t-103 128t-36 189q0 115 40.5 198.5t115.5 128.5
t177 45q91 0 160 -33.5t108 -95t42 -143.5h-179q-6 58 -40.5 90t-90.5 32q-71 0 -111.5 -59.5t-40.5 -162.5t40.5 -162.5t109.5 -59.5q56 0 91.5 33t42.5 93h181q-10 -123 -84 -194.5z" />
    <glyph glyph-name="Ccircumflex" unicode="&#x108;" horiz-adv-x="715" 
d="M527 694.5q69 -33.5 108 -95t42 -143.5h-179q-6 58 -40.5 90t-90.5 32q-71 0 -111.5 -59.5t-40.5 -162.5t40.5 -162.5t109.5 -59.5q56 0 91.5 33t42.5 93h181q-10 -132 -94 -204t-221 -72q-102 0 -176.5 45t-114.5 128.5t-40 198.5t40.5 198.5t115.5 128.5t177 45
q91 0 160 -33.5zM445 911l120 -151h-138l-60 79l-60 -79h-138l120 151h156z" />
    <glyph glyph-name="Cdotaccent" unicode="&#x10a;" horiz-adv-x="715" 
d="M527 694.5q69 -33.5 108 -95t42 -143.5h-179q-6 58 -40.5 90t-90.5 32q-71 0 -111.5 -59.5t-40.5 -162.5t40.5 -162.5t109.5 -59.5q56 0 91.5 33t42.5 93h181q-10 -132 -94 -204t-221 -72q-102 0 -176.5 45t-114.5 128.5t-40 198.5t40.5 198.5t115.5 128.5t177 45
q91 0 160 -33.5zM284 769v131h166v-131h-166z" />
    <glyph glyph-name="Eth" unicode="&#xd0;" horiz-adv-x="744" 
d="M611 619.5q99 -92.5 99 -263.5t-99 -263.5t-281 -92.5h-253v303h-62v114h62v295h253q182 0 281 -92.5zM478.5 199.5q51.5 52.5 51.5 156.5t-51.5 156.5t-152.5 52.5h-76v-148h153v-114h-153v-156h76q101 0 152.5 52.5z" />
    <glyph glyph-name="Dcaron" unicode="&#x10e;" horiz-adv-x="742" 
d="M609.5 619.5q98.5 -92.5 98.5 -263.5t-98.5 -263.5t-281.5 -92.5h-252v712h252q183 0 281.5 -92.5zM248 147h76q101 0 152.5 52.5t51.5 156.5t-51.5 156.5t-152.5 52.5h-76v-418zM262 760l-120 151h138l60 -79l60 79h138l-120 -151h-156z" />
    <glyph glyph-name="Dcroat" unicode="&#x110;" horiz-adv-x="744" 
d="M611 619.5q99 -92.5 99 -263.5t-99 -263.5t-281 -92.5h-253v303h-62v114h62v295h253q182 0 281 -92.5zM478.5 199.5q51.5 52.5 51.5 156.5t-51.5 156.5t-152.5 52.5h-76v-148h153v-114h-153v-156h76q101 0 152.5 52.5z" />
    <glyph glyph-name="Eacute" unicode="&#xc9;" horiz-adv-x="634" 
d="M249 567v-135h308v-143h-308v-144h338v-145h-511v712h503v-145h-330zM233 760l78 151h191l-141 -151h-128z" />
    <glyph glyph-name="Ebreve" unicode="&#x114;" horiz-adv-x="634" 
d="M249 567v-135h308v-143h-308v-144h338v-145h-511v712h503v-145h-330zM455.5 797.5q-46.5 -40.5 -127.5 -40.5t-127.5 40.5t-50.5 113.5h106q2 -28 20.5 -43t51.5 -15t51.5 15t20.5 43h106q-4 -73 -50.5 -113.5z" />
    <glyph glyph-name="Ecaron" unicode="&#x11a;" horiz-adv-x="634" 
d="M249 567v-135h308v-143h-308v-144h338v-145h-511v712h503v-145h-330zM250 760l-120 151h138l60 -79l60 79h138l-120 -151h-156z" />
    <glyph glyph-name="Ecircumflex" unicode="&#xca;" horiz-adv-x="634" 
d="M249 567v-135h308v-143h-308v-144h338v-145h-511v712h503v-145h-330zM406 911l120 -151h-138l-60 79l-60 -79h-138l120 151h156z" />
    <glyph glyph-name="Edieresis" unicode="&#xcb;" horiz-adv-x="634" 
d="M249 567v-135h308v-143h-308v-144h338v-145h-511v712h503v-145h-330zM144 769v131h143v-131h-143zM371 769v131h142v-131h-142z" />
    <glyph glyph-name="Edotaccent" unicode="&#x116;" horiz-adv-x="634" 
d="M249 567v-135h308v-143h-308v-144h338v-145h-511v712h503v-145h-330zM245 769v131h166v-131h-166z" />
    <glyph glyph-name="Egrave" unicode="&#xc8;" horiz-adv-x="634" 
d="M249 567v-135h308v-143h-308v-144h338v-145h-511v712h503v-145h-330zM424 760h-128l-141 151h191z" />
    <glyph glyph-name="Emacron" unicode="&#x112;" horiz-adv-x="634" 
d="M249 567v-135h308v-143h-308v-144h338v-145h-511v712h503v-145h-330zM149 776v103h359v-103h-359z" />
    <glyph glyph-name="Eogonek" unicode="&#x118;" horiz-adv-x="634" 
d="M249 567v-135h308v-143h-308v-144h338v-145h-511v712h503v-145h-330zM536.5 -42q-14.5 -18 -14.5 -37q0 -30 33 -30q18 0 35 7v-82q-42 -15 -93 -15q-61 0 -92 24t-31 67q0 32 20.5 57.5t63.5 50.5h129q-36 -24 -50.5 -42z" />
    <glyph glyph-name="Gbreve" unicode="&#x11e;" horiz-adv-x="751" 
d="M534.5 698q67.5 -30 106.5 -84.5t45 -128.5h-186q-8 47 -39 72.5t-82 25.5q-76 0 -120 -61.5t-44 -168.5q0 -109 43.5 -172t119.5 -63q67 0 104 38.5t39 109.5h-153v134h315v-400h-148v72h-2q-31 -42 -81.5 -64t-116.5 -22q-92 0 -160 44t-104.5 127t-36.5 196
q0 116 42 200.5t119.5 129.5t183.5 45q88 0 155.5 -30zM499.5 797.5q-46.5 -40.5 -127.5 -40.5t-127.5 40.5t-50.5 113.5h106q2 -28 20.5 -43t51.5 -15t51.5 15t20.5 43h106q-4 -73 -50.5 -113.5z" />
    <glyph glyph-name="Gcircumflex" unicode="&#x11c;" horiz-adv-x="751" 
d="M534.5 698q67.5 -30 106.5 -84.5t45 -128.5h-186q-8 47 -39 72.5t-82 25.5q-76 0 -120 -61.5t-44 -168.5q0 -109 43.5 -172t119.5 -63q67 0 104 38.5t39 109.5h-153v134h315v-400h-148v72h-2q-31 -42 -81.5 -64t-116.5 -22q-92 0 -160 44t-104.5 127t-36.5 196
q0 116 42 200.5t119.5 129.5t183.5 45q88 0 155.5 -30zM450 911l120 -151h-138l-60 79l-60 -79h-138l120 151h156z" />
    <glyph glyph-name="Gcommaaccent" unicode="&#x122;" horiz-adv-x="751" 
d="M534.5 698q67.5 -30 106.5 -84.5t45 -128.5h-186q-8 47 -39 72.5t-82 25.5q-76 0 -120 -61.5t-44 -168.5q0 -109 43.5 -172t119.5 -63q67 0 104 38.5t39 109.5h-153v134h315v-400h-148v72h-2q-31 -42 -81.5 -64t-116.5 -22q-92 0 -160 44t-104.5 127t-36.5 196
q0 116 42 200.5t119.5 129.5t183.5 45q88 0 155.5 -30zM369 -275h-63l46 109h-46v112h134v-112z" />
    <glyph glyph-name="Gdotaccent" unicode="&#x120;" horiz-adv-x="751" 
d="M534.5 698q67.5 -30 106.5 -84.5t45 -128.5h-186q-8 47 -39 72.5t-82 25.5q-76 0 -120 -61.5t-44 -168.5q0 -109 43.5 -172t119.5 -63q67 0 104 38.5t39 109.5h-153v134h315v-400h-148v72h-2q-31 -42 -81.5 -64t-116.5 -22q-92 0 -160 44t-104.5 127t-36.5 196
q0 116 42 200.5t119.5 129.5t183.5 45q88 0 155.5 -30zM289 769v131h166v-131h-166z" />
    <glyph glyph-name="Hbar" unicode="&#x126;" horiz-adv-x="761" 
d="M685 564v-564h-173v295h-263v-295h-173v564h-53v80h53v68h173v-68h263v68h173v-68h53v-80h-53zM249 564v-122h263v122h-263z" />
    <glyph glyph-name="Hcircumflex" unicode="&#x124;" horiz-adv-x="761" 
d="M512 0v295h-263v-295h-173v712h173v-270h263v270h173v-712h-173zM458 911l120 -151h-138l-60 79l-60 -79h-138l120 151h156z" />
    <glyph glyph-name="IJ" unicode="&#x132;" horiz-adv-x="735" 
d="M76 0v712h173v-712h-173zM604.5 52.5q-59.5 -60.5 -186.5 -60.5q-46 0 -78 9v144q23 -5 45 -5q39 0 61.5 12t33.5 42t11 85v433h173v-471q0 -128 -59.5 -188.5z" />
    <glyph glyph-name="Iacute" unicode="&#xcd;" horiz-adv-x="325" 
d="M76 0v712h173v-712h-173zM67 760l78 151h191l-141 -151h-128z" />
    <glyph glyph-name="Ibreve" unicode="&#x12c;" horiz-adv-x="325" 
d="M76 0v712h173v-712h-173zM289.5 797.5q-46.5 -40.5 -127.5 -40.5t-127.5 40.5t-50.5 113.5h106q2 -28 20.5 -43t51.5 -15t51.5 15t20.5 43h106q-4 -73 -50.5 -113.5z" />
    <glyph glyph-name="Icircumflex" unicode="&#xce;" horiz-adv-x="325" 
d="M76 0v712h173v-712h-173zM240 911l120 -151h-138l-60 79l-60 -79h-138l120 151h156z" />
    <glyph glyph-name="Idieresis" unicode="&#xcf;" horiz-adv-x="325" 
d="M76 0v712h173v-712h-173zM-22 769v131h143v-131h-143zM205 769v131h142v-131h-142z" />
    <glyph glyph-name="Idotaccent" unicode="&#x130;" horiz-adv-x="325" 
d="M76 0v712h173v-712h-173zM79 769v131h166v-131h-166z" />
    <glyph glyph-name="Igrave" unicode="&#xcc;" horiz-adv-x="325" 
d="M76 0v712h173v-712h-173zM258 760h-128l-141 151h191z" />
    <glyph glyph-name="Imacron" unicode="&#x12a;" horiz-adv-x="325" 
d="M76 0v712h173v-712h-173zM-17 776v103h359v-103h-359z" />
    <glyph glyph-name="Iogonek" unicode="&#x12e;" horiz-adv-x="325" 
d="M76 0v712h173v-712h-173zM198.5 -42q-14.5 -18 -14.5 -37q0 -30 33 -30q18 0 35 7v-82q-42 -15 -93 -15q-61 0 -92 24t-31 67q0 32 20.5 57.5t63.5 50.5h129q-36 -24 -50.5 -42z" />
    <glyph glyph-name="Itilde" unicode="&#x128;" horiz-adv-x="325" 
d="M76 0v712h173v-712h-173zM321 806q-32 -38 -89 -38q-23 0 -41.5 6.5t-41.5 18.5q-31 18 -51 18q-37 0 -42 -43h-89q3 67 35 105t89 38q23 0 39.5 -6t44.5 -19q31 -18 50 -18q20 0 30 10.5t13 32.5h89q-4 -67 -36 -105z" />
    <glyph glyph-name="Jcircumflex" unicode="&#x134;" horiz-adv-x="410" 
d="M279.5 52.5q-59.5 -60.5 -186.5 -60.5q-46 0 -78 9v144q23 -5 45 -5q39 0 61.5 12t33.5 42t11 85v433h173v-471q0 -128 -59.5 -188.5zM332 911l120 -151h-138l-60 79l-60 -79h-138l120 151h156z" />
    <glyph glyph-name="Kcommaaccent" unicode="&#x136;" horiz-adv-x="690" 
d="M686 0h-218l-217 328h-2v-328h-173v712h173v-307h2l209 307h207l-259 -337zM341 -275h-63l46 109h-46v112h134v-112z" />
    <glyph glyph-name="Lacute" unicode="&#x139;" horiz-adv-x="580" 
d="M571 147v-147h-495v712h173v-565h322zM96 760l78 151h191l-141 -151h-128z" />
    <glyph glyph-name="Lcaron" unicode="&#x13d;" horiz-adv-x="580" 
d="M571 147v-147h-495v712h173v-565h322zM285 483l24 229h130l-60 -229h-94z" />
    <glyph glyph-name="Lcommaaccent" unicode="&#x13b;" horiz-adv-x="580" 
d="M571 147v-147h-495v712h173v-565h322zM320 -275h-63l46 109h-46v112h134v-112z" />
    <glyph glyph-name="Ldot" unicode="&#x13f;" horiz-adv-x="663" 
d="M571 147v-147h-495v712h173v-565h322zM403 345v183h176v-183h-176z" />
    <glyph glyph-name="Lslash" unicode="&#x141;" horiz-adv-x="587" 
d="M578 0h-495v278l-71 -42v134l71 42v300h173v-212l144 86v-134l-144 -86v-219h322v-147z" />
    <glyph glyph-name="Nacute" unicode="&#x143;" horiz-adv-x="801" 
d="M476 0l-124 281q-66 149 -116 285h-2q8 -160 8 -300v-266h-166v712h249l125 -281q66 -153 116 -285h2q-8 133 -8 300v266h166v-712h-250zM305 760l78 151h191l-141 -151h-128z" />
    <glyph glyph-name="Ncaron" unicode="&#x147;" horiz-adv-x="801" 
d="M476 0l-124 281q-66 149 -116 285h-2q8 -160 8 -300v-266h-166v712h249l125 -281q66 -153 116 -285h2q-8 133 -8 300v266h166v-712h-250zM322 760l-120 151h138l60 -79l60 79h138l-120 -151h-156z" />
    <glyph glyph-name="Ncommaaccent" unicode="&#x145;" horiz-adv-x="801" 
d="M476 0l-124 281q-66 149 -116 285h-2q8 -160 8 -300v-266h-166v712h249l125 -281q66 -153 116 -285h2q-8 133 -8 300v266h166v-712h-250zM397 -275h-63l46 109h-46v112h134v-112z" />
    <glyph glyph-name="Eng" unicode="&#x14a;" horiz-adv-x="760" 
d="M633.5 -147.5q-50.5 -46.5 -137.5 -46.5q-46 0 -79 9v114q12 -3 28 -3q34 0 51 14t17 45q0 17 -7 34t-36 68l-122 218q-66 121 -114 228h-2q10 -120 10 -252v-281h-166v712h214l122 -218q67 -122 113 -228h2q-9 128 -9 253v193h166v-716q0 -97 -50.5 -143.5z" />
    <glyph glyph-name="Ntilde" unicode="&#xd1;" horiz-adv-x="801" 
d="M476 0l-124 281q-66 149 -116 285h-2q8 -160 8 -300v-266h-166v712h249l125 -281q66 -153 116 -285h2q-8 133 -8 300v266h166v-712h-250zM560 806q-32 -38 -89 -38q-23 0 -41.5 6.5t-41.5 18.5q-31 18 -51 18q-37 0 -42 -43h-89q3 67 35 105t89 38q23 0 39.5 -6t44.5 -19
q31 -18 50 -18q20 0 30 10.5t13 32.5h89q-4 -67 -36 -105z" />
    <glyph glyph-name="Oacute" unicode="&#xd3;" horiz-adv-x="757" 
d="M561.5 683q77.5 -45 119.5 -129t42 -198t-42 -198t-119.5 -129t-182.5 -45q-106 0 -183.5 45t-119.5 129t-42 198t42 198t119.5 129t183.5 45q105 0 182.5 -45zM258 519.5q-43 -58.5 -43 -163.5t43 -163.5t121 -58.5q77 0 120 58.5t43 163.5t-43 163.5t-120 58.5
q-78 0 -121 -58.5zM283 760l78 151h191l-141 -151h-128z" />
    <glyph glyph-name="Obreve" unicode="&#x14e;" horiz-adv-x="757" 
d="M561.5 683q77.5 -45 119.5 -129t42 -198t-42 -198t-119.5 -129t-182.5 -45q-106 0 -183.5 45t-119.5 129t-42 198t42 198t119.5 129t183.5 45q105 0 182.5 -45zM258 519.5q-43 -58.5 -43 -163.5t43 -163.5t121 -58.5q77 0 120 58.5t43 163.5t-43 163.5t-120 58.5
q-78 0 -121 -58.5zM506.5 797.5q-46.5 -40.5 -127.5 -40.5t-127.5 40.5t-50.5 113.5h106q2 -28 20.5 -43t51.5 -15t51.5 15t20.5 43h106q-4 -73 -50.5 -113.5z" />
    <glyph glyph-name="Ocircumflex" unicode="&#xd4;" horiz-adv-x="757" 
d="M561.5 683q77.5 -45 119.5 -129t42 -198t-42 -198t-119.5 -129t-182.5 -45q-106 0 -183.5 45t-119.5 129t-42 198t42 198t119.5 129t183.5 45q105 0 182.5 -45zM258 519.5q-43 -58.5 -43 -163.5t43 -163.5t121 -58.5q77 0 120 58.5t43 163.5t-43 163.5t-120 58.5
q-78 0 -121 -58.5zM456 911l120 -151h-138l-60 79l-60 -79h-138l120 151h156z" />
    <glyph glyph-name="Odieresis" unicode="&#xd6;" horiz-adv-x="757" 
d="M561.5 683q77.5 -45 119.5 -129t42 -198t-42 -198t-119.5 -129t-182.5 -45q-106 0 -183.5 45t-119.5 129t-42 198t42 198t119.5 129t183.5 45q105 0 182.5 -45zM258 519.5q-43 -58.5 -43 -163.5t43 -163.5t121 -58.5q77 0 120 58.5t43 163.5t-43 163.5t-120 58.5
q-78 0 -121 -58.5zM194 769v131h143v-131h-143zM421 769v131h142v-131h-142z" />
    <glyph glyph-name="Ograve" unicode="&#xd2;" horiz-adv-x="757" 
d="M561.5 683q77.5 -45 119.5 -129t42 -198t-42 -198t-119.5 -129t-182.5 -45q-106 0 -183.5 45t-119.5 129t-42 198t42 198t119.5 129t183.5 45q105 0 182.5 -45zM258 519.5q-43 -58.5 -43 -163.5t43 -163.5t121 -58.5q77 0 120 58.5t43 163.5t-43 163.5t-120 58.5
q-78 0 -121 -58.5zM474 760h-128l-141 151h191z" />
    <glyph glyph-name="Ohungarumlaut" unicode="&#x150;" horiz-adv-x="757" 
d="M561.5 683q77.5 -45 119.5 -129t42 -198t-42 -198t-119.5 -129t-182.5 -45q-106 0 -183.5 45t-119.5 129t-42 198t42 198t119.5 129t183.5 45q105 0 182.5 -45zM258 519.5q-43 -58.5 -43 -163.5t43 -163.5t121 -58.5q77 0 120 58.5t43 163.5t-43 163.5t-120 58.5
q-78 0 -121 -58.5zM178 760l98 151h166l-141 -151h-123zM383 760l99 151h166l-141 -151h-124z" />
    <glyph glyph-name="Omacron" unicode="&#x14c;" horiz-adv-x="757" 
d="M561.5 683q77.5 -45 119.5 -129t42 -198t-42 -198t-119.5 -129t-182.5 -45q-106 0 -183.5 45t-119.5 129t-42 198t42 198t119.5 129t183.5 45q105 0 182.5 -45zM258 519.5q-43 -58.5 -43 -163.5t43 -163.5t121 -58.5q77 0 120 58.5t43 163.5t-43 163.5t-120 58.5
q-78 0 -121 -58.5zM199 776v103h359v-103h-359z" />
    <glyph glyph-name="Oslash" unicode="&#xd8;" horiz-adv-x="757" 
d="M700 508.5q23 -68.5 23 -152.5q0 -114 -42 -198t-119.5 -129t-182.5 -45q-108 0 -187 47l-58 -79l-71 52l61 83q-44 48 -67 116.5t-23 152.5q0 114 42 198t119.5 129t183.5 45q109 0 186 -47l59 79l70 -52l-61 -83q44 -48 67 -116.5zM229 228l245 330q-40 29 -95 29
q-82 0 -127 -61t-45 -170q0 -73 22 -128zM506 186q45 61 45 170q0 78 -22 129l-245 -331q40 -29 95 -29q82 0 127 61z" />
    <glyph glyph-name="Otilde" unicode="&#xd5;" horiz-adv-x="757" 
d="M561.5 683q77.5 -45 119.5 -129t42 -198t-42 -198t-119.5 -129t-182.5 -45q-106 0 -183.5 45t-119.5 129t-42 198t42 198t119.5 129t183.5 45q105 0 182.5 -45zM258 519.5q-43 -58.5 -43 -163.5t43 -163.5t121 -58.5q77 0 120 58.5t43 163.5t-43 163.5t-120 58.5
q-78 0 -121 -58.5zM538 806q-32 -38 -89 -38q-23 0 -41.5 6.5t-41.5 18.5q-31 18 -51 18q-37 0 -42 -43h-89q3 67 35 105t89 38q23 0 39.5 -6t44.5 -19q31 -18 50 -18q20 0 30 10.5t13 32.5h89q-4 -67 -36 -105z" />
    <glyph glyph-name="OE" unicode="&#x152;" horiz-adv-x="1021" 
d="M636 567v-135h307v-143h-307v-144h338v-145h-555q-184 0 -284.5 93t-100.5 263t100.5 263t284.5 93h548v-145h-331zM214 356q0 -104 51.5 -157.5t153.5 -53.5h47v422h-47q-205 0 -205 -211z" />
    <glyph glyph-name="Thorn" unicode="&#xde;" horiz-adv-x="654" 
d="M360 604q133 0 202.5 -63.5t69.5 -175.5q0 -111 -69 -175t-202 -64h-112v-126h-173v712h173v-108h111zM249 268h84q63 0 92.5 24.5t29.5 72.5q0 49 -29.5 73t-92.5 24h-84v-194z" />
    <glyph glyph-name="Racute" unicode="&#x154;" horiz-adv-x="685" 
d="M627 509q0 -65 -35 -110.5t-96 -63.5v-2q38 -13 61 -43.5t48 -99.5l69 -190h-186l-54 161q-19 56 -44.5 77.5t-75.5 21.5h-65v-260h-173v712h289q262 0 262 -203zM249 391h95q112 0 112 96q0 91 -119 91h-88v-187zM238 760l78 151h191l-141 -151h-128z" />
    <glyph glyph-name="Rcaron" unicode="&#x158;" horiz-adv-x="685" 
d="M627 509q0 -65 -35 -110.5t-96 -63.5v-2q38 -13 61 -43.5t48 -99.5l69 -190h-186l-54 161q-19 56 -44.5 77.5t-75.5 21.5h-65v-260h-173v712h289q262 0 262 -203zM249 391h95q112 0 112 96q0 91 -119 91h-88v-187zM255 760l-120 151h138l60 -79l60 79h138l-120 -151h-156
z" />
    <glyph glyph-name="Rcommaaccent" unicode="&#x156;" horiz-adv-x="685" 
d="M627 509q0 -65 -35 -110.5t-96 -63.5v-2q38 -13 61 -43.5t48 -99.5l69 -190h-186l-54 161q-19 56 -44.5 77.5t-75.5 21.5h-65v-260h-173v712h289q262 0 262 -203zM249 391h95q112 0 112 96q0 91 -119 91h-88v-187zM350 -275h-63l46 109h-46v112h134v-112z" />
    <glyph glyph-name="Sacute" unicode="&#x15a;" horiz-adv-x="645" 
d="M522 668.5q72 -59.5 72 -173.5h-180q0 48 -27.5 73.5t-78.5 25.5q-43 0 -68.5 -18.5t-25.5 -48.5q0 -23 13.5 -37.5t42.5 -25.5t86 -25q85 -21 137.5 -43.5t86 -66.5t33.5 -117q0 -69 -36 -120.5t-101.5 -79.5t-153.5 -28q-140 0 -219 65t-79 183h184q0 -110 118 -110
q49 0 77 20t28 55q0 26 -13.5 41t-39.5 24.5t-83 24.5q-87 22 -139 44t-86 65t-34 115q0 65 34 114t97.5 76t147.5 27q135 0 207 -59.5zM219 760l78 151h191l-141 -151h-128z" />
    <glyph glyph-name="Scaron" unicode="&#x160;" horiz-adv-x="645" 
d="M522 668.5q72 -59.5 72 -173.5h-180q0 48 -27.5 73.5t-78.5 25.5q-43 0 -68.5 -18.5t-25.5 -48.5q0 -23 13.5 -37.5t42.5 -25.5t86 -25q85 -21 137.5 -43.5t86 -66.5t33.5 -117q0 -69 -36 -120.5t-101.5 -79.5t-153.5 -28q-140 0 -219 65t-79 183h184q0 -110 118 -110
q49 0 77 20t28 55q0 26 -13.5 41t-39.5 24.5t-83 24.5q-87 22 -139 44t-86 65t-34 115q0 65 34 114t97.5 76t147.5 27q135 0 207 -59.5zM236 760l-120 151h138l60 -79l60 79h138l-120 -151h-156z" />
    <glyph glyph-name="Scedilla" unicode="&#x15e;" horiz-adv-x="645" 
d="M580.5 97q-32.5 -50 -92 -79t-139.5 -33l-28 -45q15 5 33 5q39 0 63 -21t24 -57q0 -43 -33.5 -71t-94.5 -28q-65 0 -120 32l26 53q44 -22 81 -22q21 0 32.5 8t11.5 23t-11.5 24t-32.5 9q-18 0 -31 -6l-29 27l42 69q-122 10 -190 74t-68 173h184q0 -110 118 -110
q49 0 77 20t28 55q0 26 -13.5 41t-39.5 24.5t-83 24.5q-87 22 -139 44t-86 65t-34 115q0 65 34 114t97.5 76t147.5 27q135 0 207 -59.5t72 -173.5h-180q0 48 -27.5 73.5t-78.5 25.5q-43 0 -68.5 -18.5t-25.5 -48.5q0 -23 13.5 -37.5t42.5 -25.5t86 -25q85 -21 137.5 -43.5
t86 -66.5t33.5 -117q0 -65 -32.5 -115z" />
    <glyph glyph-name="Scircumflex" unicode="&#x15c;" horiz-adv-x="645" 
d="M522 668.5q72 -59.5 72 -173.5h-180q0 48 -27.5 73.5t-78.5 25.5q-43 0 -68.5 -18.5t-25.5 -48.5q0 -23 13.5 -37.5t42.5 -25.5t86 -25q85 -21 137.5 -43.5t86 -66.5t33.5 -117q0 -69 -36 -120.5t-101.5 -79.5t-153.5 -28q-140 0 -219 65t-79 183h184q0 -110 118 -110
q49 0 77 20t28 55q0 26 -13.5 41t-39.5 24.5t-83 24.5q-87 22 -139 44t-86 65t-34 115q0 65 34 114t97.5 76t147.5 27q135 0 207 -59.5zM392 911l120 -151h-138l-60 79l-60 -79h-138l120 151h156z" />
    <glyph glyph-name="Scommaaccent" unicode="&#x218;" horiz-adv-x="645" 
d="M522 668.5q72 -59.5 72 -173.5h-180q0 48 -27.5 73.5t-78.5 25.5q-43 0 -68.5 -18.5t-25.5 -48.5q0 -23 13.5 -37.5t42.5 -25.5t86 -25q85 -21 137.5 -43.5t86 -66.5t33.5 -117q0 -69 -36 -120.5t-101.5 -79.5t-153.5 -28q-140 0 -219 65t-79 183h184q0 -110 118 -110
q49 0 77 20t28 55q0 26 -13.5 41t-39.5 24.5t-83 24.5q-87 22 -139 44t-86 65t-34 115q0 65 34 114t97.5 76t147.5 27q135 0 207 -59.5zM313 -275h-63l46 109h-46v112h134v-112z" />
    <glyph glyph-name="Germandbls" unicode="&#x1e9e;" horiz-adv-x="814" 
d="M731.5 341q50.5 -57 50.5 -145q0 -100 -68.5 -155.5t-185.5 -55.5t-178 53.5t-61 159.5h156q0 -77 78 -77q38 0 59 19.5t21 57.5q0 57 -48.5 86.5t-145.5 35.5v116l108 120q-42 32 -107 32q-84 0 -127.5 -46t-43.5 -136v-406h-173v402q0 160 91.5 242.5t264.5 82.5
q97 0 177 -38t132 -103l-145 -161q95 -27 145.5 -84z" />
    <glyph glyph-name="Tbar" unicode="&#x166;" horiz-adv-x="627" 
d="M400 392h132v-114h-132v-278h-173v278h-132v114h132v173h-218v147h609v-147h-218v-173z" />
    <glyph glyph-name="Tcaron" unicode="&#x164;" horiz-adv-x="627" 
d="M400 565v-565h-173v565h-218v147h609v-147h-218zM235 760l-120 151h138l60 -79l60 79h138l-120 -151h-156z" />
    <glyph glyph-name="uni0162" unicode="&#x162;" horiz-adv-x="627" 
d="M400 565v-565h-173v565h-218v147h609v-147h-218zM310 -275h-63l46 109h-46v112h134v-112z" />
    <glyph glyph-name="uni021A" unicode="&#x21a;" horiz-adv-x="627" 
d="M400 565v-565h-173v565h-218v147h609v-147h-218zM310 -275h-63l46 109h-46v112h134v-112z" />
    <glyph glyph-name="Uacute" unicode="&#xda;" horiz-adv-x="725" 
d="M579 59.5q-76 -75.5 -217 -75.5q-140 0 -216 75.5t-76 216.5v436h173v-432q0 -70 30.5 -107t88.5 -37q59 0 89.5 37t30.5 107v432h173v-436q0 -141 -76 -216.5zM266 760l78 151h191l-141 -151h-128z" />
    <glyph glyph-name="Ubreve" unicode="&#x16c;" horiz-adv-x="725" 
d="M579 59.5q-76 -75.5 -217 -75.5q-140 0 -216 75.5t-76 216.5v436h173v-432q0 -70 30.5 -107t88.5 -37q59 0 89.5 37t30.5 107v432h173v-436q0 -141 -76 -216.5zM489.5 797.5q-46.5 -40.5 -127.5 -40.5t-127.5 40.5t-50.5 113.5h106q2 -28 20.5 -43t51.5 -15t51.5 15
t20.5 43h106q-4 -73 -50.5 -113.5z" />
    <glyph glyph-name="Ucircumflex" unicode="&#xdb;" horiz-adv-x="725" 
d="M579 59.5q-76 -75.5 -217 -75.5q-140 0 -216 75.5t-76 216.5v436h173v-432q0 -70 30.5 -107t88.5 -37q59 0 89.5 37t30.5 107v432h173v-436q0 -141 -76 -216.5zM440 911l120 -151h-138l-60 79l-60 -79h-138l120 151h156z" />
    <glyph glyph-name="Udieresis" unicode="&#xdc;" horiz-adv-x="725" 
d="M579 59.5q-76 -75.5 -217 -75.5q-140 0 -216 75.5t-76 216.5v436h173v-432q0 -70 30.5 -107t88.5 -37q59 0 89.5 37t30.5 107v432h173v-436q0 -141 -76 -216.5zM177 769v131h143v-131h-143zM404 769v131h142v-131h-142z" />
    <glyph glyph-name="Ugrave" unicode="&#xd9;" horiz-adv-x="725" 
d="M579 59.5q-76 -75.5 -217 -75.5q-140 0 -216 75.5t-76 216.5v436h173v-432q0 -70 30.5 -107t88.5 -37q59 0 89.5 37t30.5 107v432h173v-436q0 -141 -76 -216.5zM458 760h-128l-141 151h191z" />
    <glyph glyph-name="Uhungarumlaut" unicode="&#x170;" horiz-adv-x="725" 
d="M579 59.5q-76 -75.5 -217 -75.5q-140 0 -216 75.5t-76 216.5v436h173v-432q0 -70 30.5 -107t88.5 -37q59 0 89.5 37t30.5 107v432h173v-436q0 -141 -76 -216.5zM162 760l98 151h166l-141 -151h-123zM367 760l99 151h166l-141 -151h-124z" />
    <glyph glyph-name="Umacron" unicode="&#x16a;" horiz-adv-x="725" 
d="M579 59.5q-76 -75.5 -217 -75.5q-140 0 -216 75.5t-76 216.5v436h173v-432q0 -70 30.5 -107t88.5 -37q59 0 89.5 37t30.5 107v432h173v-436q0 -141 -76 -216.5zM182 776v103h359v-103h-359z" />
    <glyph glyph-name="Uogonek" unicode="&#x172;" horiz-adv-x="725" 
d="M626 128.5q-29 -61.5 -86 -107.5q-36 -29 -50 -51t-14 -45q0 -35 33 -35q21 0 34 6v-80q-38 -15 -89 -15q-61 0 -91.5 24.5t-30.5 68.5q0 27 14.5 48t43.5 42v2q-18 -2 -28 -2q-140 0 -216 75.5t-76 216.5v436h173v-432q0 -70 30.5 -107t88.5 -37q59 0 89.5 37t30.5 107
v432h173v-436q0 -86 -29 -147.5z" />
    <glyph glyph-name="Uring" unicode="&#x16e;" horiz-adv-x="725" 
d="M579 59.5q-76 -75.5 -217 -75.5q-140 0 -216 75.5t-76 216.5v436h173v-432q0 -70 30.5 -107t88.5 -37q59 0 89.5 37t30.5 107v432h173v-436q0 -141 -76 -216.5zM442.5 945.5q33.5 -33.5 33.5 -80.5t-33.5 -80t-80.5 -33t-80.5 33t-33.5 80t33.5 80.5t80.5 33.5
t80.5 -33.5zM322.5 904.5q-16.5 -16.5 -16.5 -39.5t16.5 -39.5t39.5 -16.5t39.5 16.5t16.5 39.5t-16.5 39.5t-39.5 16.5t-39.5 -16.5z" />
    <glyph glyph-name="Utilde" unicode="&#x168;" horiz-adv-x="725" 
d="M579 59.5q-76 -75.5 -217 -75.5q-140 0 -216 75.5t-76 216.5v436h173v-432q0 -70 30.5 -107t88.5 -37q59 0 89.5 37t30.5 107v432h173v-436q0 -141 -76 -216.5zM521 806q-32 -38 -89 -38q-23 0 -41.5 6.5t-41.5 18.5q-31 18 -51 18q-37 0 -42 -43h-89q3 67 35 105t89 38
q23 0 39.5 -6t44.5 -19q31 -18 50 -18q20 0 30 10.5t13 32.5h89q-4 -67 -36 -105z" />
    <glyph glyph-name="Wacute" unicode="&#x1e82;" horiz-adv-x="991" 
d="M609 0l-60 285q-33 147 -53 286h-2q-19 -130 -52 -286l-60 -285h-230l-144 712h168l48 -257q29 -158 46 -298h2q25 152 57 298l56 257h221l56 -257q34 -153 56 -298h2q19 148 47 298l47 257h169l-144 -712h-230zM398 760l78 151h191l-141 -151h-128z" />
    <glyph glyph-name="Wcircumflex" unicode="&#x174;" horiz-adv-x="991" 
d="M609 0l-60 285q-33 147 -53 286h-2q-19 -130 -52 -286l-60 -285h-230l-144 712h168l48 -257q29 -158 46 -298h2q25 152 57 298l56 257h221l56 -257q34 -153 56 -298h2q19 148 47 298l47 257h169l-144 -712h-230zM572 911l120 -151h-138l-60 79l-60 -79h-138l120 151h156z
" />
    <glyph glyph-name="Wdieresis" unicode="&#x1e84;" horiz-adv-x="991" 
d="M609 0l-60 285q-33 147 -53 286h-2q-19 -130 -52 -286l-60 -285h-230l-144 712h168l48 -257q29 -158 46 -298h2q25 152 57 298l56 257h221l56 -257q34 -153 56 -298h2q19 148 47 298l47 257h169l-144 -712h-230zM309 769v131h143v-131h-143zM536 769v131h142v-131h-142z
" />
    <glyph glyph-name="Wgrave" unicode="&#x1e80;" horiz-adv-x="991" 
d="M609 0l-60 285q-33 147 -53 286h-2q-19 -130 -52 -286l-60 -285h-230l-144 712h168l48 -257q29 -158 46 -298h2q25 152 57 298l56 257h221l56 -257q34 -153 56 -298h2q19 148 47 298l47 257h169l-144 -712h-230zM590 760h-128l-141 151h191z" />
    <glyph glyph-name="Yacute" unicode="&#xdd;" horiz-adv-x="663" 
d="M418 0h-173v269l-244 443h192l62 -129q43 -89 76 -179h2q30 86 75 179l62 129h192l-244 -443v-269zM236 760l78 151h191l-141 -151h-128z" />
    <glyph glyph-name="Ycircumflex" unicode="&#x176;" horiz-adv-x="663" 
d="M418 0h-173v269l-244 443h192l62 -129q43 -89 76 -179h2q30 86 75 179l62 129h192l-244 -443v-269zM409 911l120 -151h-138l-60 79l-60 -79h-138l120 151h156z" />
    <glyph glyph-name="Ydieresis" unicode="&#x178;" horiz-adv-x="663" 
d="M418 0h-173v269l-244 443h192l62 -129q43 -89 76 -179h2q30 86 75 179l62 129h192l-244 -443v-269zM147 769v131h143v-131h-143zM374 769v131h142v-131h-142z" />
    <glyph glyph-name="Ygrave" unicode="&#x1ef2;" horiz-adv-x="663" 
d="M418 0h-173v269l-244 443h192l62 -129q43 -89 76 -179h2q30 86 75 179l62 129h192l-244 -443v-269zM427 760h-128l-141 151h191z" />
    <glyph glyph-name="Zacute" unicode="&#x179;" horiz-adv-x="593" 
d="M227 146v-2h345v-144h-552v150l329 416v2h-314v144h521v-150zM200 760l78 151h191l-141 -151h-128z" />
    <glyph glyph-name="Zcaron" unicode="&#x17d;" horiz-adv-x="593" 
d="M227 146v-2h345v-144h-552v150l329 416v2h-314v144h521v-150zM218 760l-120 151h138l60 -79l60 79h138l-120 -151h-156z" />
    <glyph glyph-name="Zdotaccent" unicode="&#x17b;" horiz-adv-x="593" 
d="M227 146v-2h345v-144h-552v150l329 416v2h-314v144h521v-150zM213 769v131h166v-131h-166z" />
    <glyph glyph-name="J.acute.loclNLD" horiz-adv-x="410" 
d="M279.5 52.5q-59.5 -60.5 -186.5 -60.5q-46 0 -78 9v144q23 -5 45 -5q39 0 61.5 12t33.5 42t11 85v433h173v-471q0 -128 -59.5 -188.5zM158 768l78 148h191l-141 -148h-128z" />
    <glyph glyph-name="Ccedilla.ss01" horiz-adv-x="715" 
d="M527 694.5q69 -33.5 108 -95t42 -143.5h-179q-6 58 -40.5 90t-90.5 32q-71 0 -111.5 -59.5t-40.5 -162.5t40.5 -162.5t109.5 -59.5q56 0 91.5 33t42.5 93h181q-10 -132 -94 -204t-221 -72q-102 0 -176.5 45t-114.5 128.5t-40 198.5t40.5 198.5t115.5 128.5t177 45
q91 0 160 -33.5zM178 -217l141 168h133l-98 -168h-176z" />
    <glyph glyph-name="Scedilla.ss01" horiz-adv-x="645" 
d="M522 668.5q72 -59.5 72 -173.5h-180q0 48 -27.5 73.5t-78.5 25.5q-43 0 -68.5 -18.5t-25.5 -48.5q0 -23 13.5 -37.5t42.5 -25.5t86 -25q85 -21 137.5 -43.5t86 -66.5t33.5 -117q0 -69 -36 -120.5t-101.5 -79.5t-153.5 -28q-140 0 -219 65t-79 183h184q0 -110 118 -110
q49 0 77 20t28 55q0 26 -13.5 41t-39.5 24.5t-83 24.5q-87 22 -139 44t-86 65t-34 115q0 65 34 114t97.5 76t147.5 27q135 0 207 -59.5zM128 -217l141 168h133l-98 -168h-176z" />
    <glyph glyph-name="uni0162.ss01" horiz-adv-x="627" 
d="M400 565v-565h-173v565h-218v147h609v-147h-218zM125 -217l141 168h133l-98 -168h-176z" />
    <glyph glyph-name="aacute" unicode="&#xe1;" horiz-adv-x="561" 
d="M448.5 471.5q57.5 -52.5 57.5 -153.5v-175q0 -90 15 -143h-150q-7 28 -7 66h-2q-58 -79 -165 -79q-81 0 -128 44t-47 112q0 67 46.5 107t155.5 57q63 10 122 14v18q0 41 -19 60.5t-52 19.5q-34 0 -52.5 -18.5t-19.5 -52.5h-160q4 77 62 126.5t170 49.5q116 0 173.5 -52.5
zM256 220q-37 -7 -53.5 -22.5t-16.5 -42.5t17 -42.5t48 -15.5q20 0 38.5 6.5t31.5 19.5q15 16 20 35.5t5 53.5v18q-48 -2 -90 -10zM174 564l78 148h191l-141 -148h-128z" />
    <glyph glyph-name="abreve" unicode="&#x103;" horiz-adv-x="561" 
d="M448.5 471.5q57.5 -52.5 57.5 -153.5v-175q0 -90 15 -143h-150q-7 28 -7 66h-2q-58 -79 -165 -79q-81 0 -128 44t-47 112q0 67 46.5 107t155.5 57q63 10 122 14v18q0 41 -19 60.5t-52 19.5q-34 0 -52.5 -18.5t-19.5 -52.5h-160q4 77 62 126.5t170 49.5q116 0 173.5 -52.5
zM256 220q-37 -7 -53.5 -22.5t-16.5 -42.5t17 -42.5t48 -15.5q20 0 38.5 6.5t31.5 19.5q15 16 20 35.5t5 53.5v18q-48 -2 -90 -10zM396.5 598.5q-46.5 -40.5 -127.5 -40.5t-127.5 40.5t-50.5 113.5h106q2 -28 20.5 -43t51.5 -15t51.5 15t20.5 43h106q-4 -73 -50.5 -113.5z
" />
    <glyph glyph-name="acircumflex" unicode="&#xe2;" horiz-adv-x="561" 
d="M448.5 471.5q57.5 -52.5 57.5 -153.5v-175q0 -90 15 -143h-150q-7 28 -7 66h-2q-58 -79 -165 -79q-81 0 -128 44t-47 112q0 67 46.5 107t155.5 57q63 10 122 14v18q0 41 -19 60.5t-52 19.5q-34 0 -52.5 -18.5t-19.5 -52.5h-160q4 77 62 126.5t170 49.5q116 0 173.5 -52.5
zM256 220q-37 -7 -53.5 -22.5t-16.5 -42.5t17 -42.5t48 -15.5q20 0 38.5 6.5t31.5 19.5q15 16 20 35.5t5 53.5v18q-48 -2 -90 -10zM269 640l-58 -76h-138l118 148h156l118 -148h-138z" />
    <glyph glyph-name="adieresis" unicode="&#xe4;" horiz-adv-x="561" 
d="M448.5 471.5q57.5 -52.5 57.5 -153.5v-175q0 -90 15 -143h-150q-7 28 -7 66h-2q-58 -79 -165 -79q-81 0 -128 44t-47 112q0 67 46.5 107t155.5 57q63 10 122 14v18q0 41 -19 60.5t-52 19.5q-34 0 -52.5 -18.5t-19.5 -52.5h-160q4 77 62 126.5t170 49.5q116 0 173.5 -52.5
zM256 220q-37 -7 -53.5 -22.5t-16.5 -42.5t17 -42.5t48 -15.5q20 0 38.5 6.5t31.5 19.5q15 16 20 35.5t5 53.5v18q-48 -2 -90 -10zM85 581v131h143v-131h-143zM312 581v131h142v-131h-142z" />
    <glyph glyph-name="agrave" unicode="&#xe0;" horiz-adv-x="561" 
d="M448.5 471.5q57.5 -52.5 57.5 -153.5v-175q0 -90 15 -143h-150q-7 28 -7 66h-2q-58 -79 -165 -79q-81 0 -128 44t-47 112q0 67 46.5 107t155.5 57q63 10 122 14v18q0 41 -19 60.5t-52 19.5q-34 0 -52.5 -18.5t-19.5 -52.5h-160q4 77 62 126.5t170 49.5q116 0 173.5 -52.5
zM256 220q-37 -7 -53.5 -22.5t-16.5 -42.5t17 -42.5t48 -15.5q20 0 38.5 6.5t31.5 19.5q15 16 20 35.5t5 53.5v18q-48 -2 -90 -10zM365 564h-128l-141 148h191z" />
    <glyph glyph-name="amacron" unicode="&#x101;" horiz-adv-x="561" 
d="M448.5 471.5q57.5 -52.5 57.5 -153.5v-175q0 -90 15 -143h-150q-7 28 -7 66h-2q-58 -79 -165 -79q-81 0 -128 44t-47 112q0 67 46.5 107t155.5 57q63 10 122 14v18q0 41 -19 60.5t-52 19.5q-34 0 -52.5 -18.5t-19.5 -52.5h-160q4 77 62 126.5t170 49.5q116 0 173.5 -52.5
zM256 220q-37 -7 -53.5 -22.5t-16.5 -42.5t17 -42.5t48 -15.5q20 0 38.5 6.5t31.5 19.5q15 16 20 35.5t5 53.5v18q-48 -2 -90 -10zM90 589v103h359v-103h-359z" />
    <glyph glyph-name="aogonek" unicode="&#x105;" horiz-adv-x="561" 
d="M524 -102v-82q-42 -15 -93 -15q-61 0 -92 24t-31 67q0 32 20.5 57.5t63.5 50.5h-21q-7 28 -7 66h-2q-58 -79 -165 -79q-81 0 -128 44t-47 112q0 67 46.5 107t155.5 57q63 10 122 14v18q0 41 -19 60.5t-52 19.5q-34 0 -52.5 -18.5t-19.5 -52.5h-160q4 77 62 126.5
t170 49.5q116 0 173.5 -52.5t57.5 -153.5v-175q0 -90 15 -143q-36 -24 -50.5 -42t-14.5 -37q0 -30 33 -30q18 0 35 7zM256 220q-37 -7 -53.5 -22.5t-16.5 -42.5t17 -42.5t48 -15.5q20 0 38.5 6.5t31.5 19.5q15 16 20 35.5t5 53.5v18q-48 -2 -90 -10z" />
    <glyph glyph-name="aring" unicode="&#xe5;" horiz-adv-x="561" 
d="M448.5 471.5q57.5 -52.5 57.5 -153.5v-175q0 -90 15 -143h-150q-7 28 -7 66h-2q-58 -79 -165 -79q-81 0 -128 44t-47 112q0 67 46.5 107t155.5 57q63 10 122 14v18q0 41 -19 60.5t-52 19.5q-34 0 -52.5 -18.5t-19.5 -52.5h-160q4 77 62 126.5t170 49.5q116 0 173.5 -52.5
zM256 220q-37 -7 -53.5 -22.5t-16.5 -42.5t17 -42.5t48 -15.5q20 0 38.5 6.5t31.5 19.5q15 16 20 35.5t5 53.5v18q-48 -2 -90 -10zM349.5 746.5q33.5 -33.5 33.5 -80.5t-33.5 -80t-80.5 -33t-80.5 33t-33.5 80t33.5 80.5t80.5 33.5t80.5 -33.5zM229.5 705.5
q-16.5 -16.5 -16.5 -39.5t16.5 -39.5t39.5 -16.5t39.5 16.5t16.5 39.5t-16.5 39.5t-39.5 16.5t-39.5 -16.5z" />
    <glyph glyph-name="atilde" unicode="&#xe3;" horiz-adv-x="561" 
d="M448.5 471.5q57.5 -52.5 57.5 -153.5v-175q0 -90 15 -143h-150q-7 28 -7 66h-2q-58 -79 -165 -79q-81 0 -128 44t-47 112q0 67 46.5 107t155.5 57q63 10 122 14v18q0 41 -19 60.5t-52 19.5q-34 0 -52.5 -18.5t-19.5 -52.5h-160q4 77 62 126.5t170 49.5q116 0 173.5 -52.5
zM256 220q-37 -7 -53.5 -22.5t-16.5 -42.5t17 -42.5t48 -15.5q20 0 38.5 6.5t31.5 19.5q15 16 20 35.5t5 53.5v18q-48 -2 -90 -10zM428 607q-32 -38 -89 -38q-23 0 -41.5 6.5t-41.5 18.5q-31 18 -51 18q-37 0 -42 -43h-89q3 67 35 105t89 38q23 0 39.5 -6t44.5 -19
q31 -18 50 -18q20 0 30 10.5t13 32.5h89q-4 -67 -36 -105z" />
    <glyph glyph-name="ae" unicode="&#xe6;" horiz-adv-x="895" 
d="M662.5 112q21.5 17 26.5 44h169q-10 -48 -44 -87.5t-87 -62t-118 -22.5q-62 0 -110 22t-80 63q-29 -43 -78 -64t-113 -21t-110.5 20.5t-71 57t-24.5 81.5q0 87 67 128t213 41h55v27q0 41 -19 60.5t-58 19.5q-35 0 -55 -18.5t-21 -52.5h-160q4 77 63.5 126.5t173.5 49.5
q113 0 168 -54q64 54 158 54q88 0 150.5 -43.5t89.5 -119.5q10 -28 14 -61t4 -80h-353q5 -125 95 -125q34 0 55.5 17zM544 389.5q-25 -25.5 -31 -78.5h186q-4 52 -29.5 78t-62.5 26q-38 0 -63 -25.5zM310 224q-67 0 -95.5 -17.5t-28.5 -52.5q0 -28 18 -45t51 -17q45 0 74 27
q16 17 22 37.5t6 55.5v12h-47z" />
    <glyph glyph-name="cacute" unicode="&#x107;" horiz-adv-x="575" 
d="M421.5 497.5q55.5 -26.5 89 -74t38.5 -109.5h-172q-4 40 -25.5 62.5t-55.5 22.5q-43 0 -67.5 -38t-24.5 -106q0 -69 24.5 -107t68.5 -38q34 0 55.5 25t23.5 69h173q-8 -101 -76.5 -160.5t-176.5 -59.5q-80 0 -140.5 33.5t-93 94.5t-32.5 143q0 81 32.5 142t92.5 94
t140 33q71 0 126.5 -26.5zM200 564l78 148h191l-141 -148h-128z" />
    <glyph glyph-name="ccaron" unicode="&#x10d;" horiz-adv-x="575" 
d="M421.5 497.5q55.5 -26.5 89 -74t38.5 -109.5h-172q-4 40 -25.5 62.5t-55.5 22.5q-43 0 -67.5 -38t-24.5 -106q0 -69 24.5 -107t68.5 -38q34 0 55.5 25t23.5 69h173q-8 -101 -76.5 -160.5t-176.5 -59.5q-80 0 -140.5 33.5t-93 94.5t-32.5 143q0 81 32.5 142t92.5 94
t140 33q71 0 126.5 -26.5zM217 564l-118 148h138l58 -76l58 76h138l-118 -148h-156z" />
    <glyph glyph-name="ccedilla" unicode="&#xe7;" horiz-adv-x="575" 
d="M352.5 135q21.5 25 23.5 69h173q-8 -93 -67 -151.5t-155 -67.5l-28 -45q15 5 33 5q39 0 63 -21t24 -57q0 -43 -33.5 -71t-94.5 -28q-65 0 -120 32l26 53q44 -22 81 -22q21 0 32.5 8t11.5 23t-11.5 24t-32.5 9q-18 0 -31 -6l-29 27l42 70q-106 11 -168 83t-62 186
q0 81 32.5 142t92.5 94t140 33q71 0 126.5 -26.5t89 -74t38.5 -109.5h-172q-4 40 -25.5 62.5t-55.5 22.5q-43 0 -67.5 -38t-24.5 -106q0 -69 24.5 -107t68.5 -38q34 0 55.5 25z" />
    <glyph glyph-name="ccircumflex" unicode="&#x109;" horiz-adv-x="575" 
d="M421.5 497.5q55.5 -26.5 89 -74t38.5 -109.5h-172q-4 40 -25.5 62.5t-55.5 22.5q-43 0 -67.5 -38t-24.5 -106q0 -69 24.5 -107t68.5 -38q34 0 55.5 25t23.5 69h173q-8 -101 -76.5 -160.5t-176.5 -59.5q-80 0 -140.5 33.5t-93 94.5t-32.5 143q0 81 32.5 142t92.5 94
t140 33q71 0 126.5 -26.5zM295 640l-58 -76h-138l118 148h156l118 -148h-138z" />
    <glyph glyph-name="cdotaccent" unicode="&#x10b;" horiz-adv-x="575" 
d="M421.5 497.5q55.5 -26.5 89 -74t38.5 -109.5h-172q-4 40 -25.5 62.5t-55.5 22.5q-43 0 -67.5 -38t-24.5 -106q0 -69 24.5 -107t68.5 -38q34 0 55.5 25t23.5 69h173q-8 -101 -76.5 -160.5t-176.5 -59.5q-80 0 -140.5 33.5t-93 94.5t-32.5 143q0 81 32.5 142t92.5 94
t140 33q71 0 126.5 -26.5zM212 581v131h166v-131h-166z" />
    <glyph glyph-name="eth" unicode="&#xf0;" horiz-adv-x="597" 
d="M546.5 397q20.5 -63 20.5 -135q0 -85 -33 -148t-94 -96.5t-143 -33.5q-81 0 -141.5 31.5t-93 89.5t-32.5 135q0 79 28 138.5t79.5 92t119.5 32.5q33 0 66 -12v2q-27 32 -74 74l-129 -48l-26 68l91 34q-26 20 -62 45l138 62q37 -24 71 -51l126 47l26 -68l-90 -34
q53 -50 89 -101q43 -61 63.5 -124zM369.5 146q25.5 39 25.5 106q0 68 -25.5 106.5t-69.5 38.5t-69.5 -38.5t-25.5 -106.5q0 -67 25.5 -106t69.5 -39t69.5 39z" />
    <glyph glyph-name="dcaron" unicode="&#x10f;" horiz-adv-x="610" 
d="M389 0v63h-2q-23 -37 -60.5 -57t-80.5 -20q-65 0 -114 33t-75.5 93.5t-26.5 141.5t26 141.5t74 93.5t112 33q42 0 79 -18t60 -51h2v259h166v-712h-160zM230 357.5q-26 -38.5 -26 -103.5t26 -103.5t69 -38.5q42 0 67.5 38t25.5 104t-25.5 104t-67.5 38q-43 0 -69 -38.5z
M577 534l24 178h130l-60 -178h-94z" />
    <glyph glyph-name="dcroat" unicode="&#x111;" horiz-adv-x="604" 
d="M549 572v-572h-160v63h-2q-23 -37 -60.5 -57t-80.5 -20q-65 0 -114 33t-75.5 93.5t-26.5 141.5t26 141.5t74 93.5t112 33q42 0 79 -18t60 -51h2v119h-128v78h128v62h166v-62h66v-78h-66zM366.5 150q25.5 38 25.5 104t-25.5 104t-67.5 38q-43 0 -69 -38.5t-26 -103.5
t26 -103.5t69 -38.5q42 0 67.5 38z" />
    <glyph glyph-name="eacute" unicode="&#xe9;" horiz-adv-x="584" 
d="M350 112q23 17 27 44h169q-11 -48 -45 -87.5t-87.5 -62t-119.5 -22.5q-83 0 -142.5 35t-90.5 97t-31 142q0 76 31 136.5t90.5 95t140.5 34.5q89 0 152 -43.5t90 -119.5q11 -29 15.5 -62t4.5 -79h-361q3 -67 30 -96t69 -29q35 0 58 17zM228 390.5q-25 -24.5 -32 -76.5h191
q-5 51 -31 76t-64 25q-39 0 -64 -24.5zM196 564l78 148h191l-141 -148h-128z" />
    <glyph glyph-name="ebreve" unicode="&#x115;" horiz-adv-x="584" 
d="M350 112q23 17 27 44h169q-11 -48 -45 -87.5t-87.5 -62t-119.5 -22.5q-83 0 -142.5 35t-90.5 97t-31 142q0 76 31 136.5t90.5 95t140.5 34.5q89 0 152 -43.5t90 -119.5q11 -29 15.5 -62t4.5 -79h-361q3 -67 30 -96t69 -29q35 0 58 17zM228 390.5q-25 -24.5 -32 -76.5h191
q-5 51 -31 76t-64 25q-39 0 -64 -24.5zM418.5 598.5q-46.5 -40.5 -127.5 -40.5t-127.5 40.5t-50.5 113.5h106q2 -28 20.5 -43t51.5 -15t51.5 15t20.5 43h106q-4 -73 -50.5 -113.5z" />
    <glyph glyph-name="ecaron" unicode="&#x11b;" horiz-adv-x="584" 
d="M350 112q23 17 27 44h169q-11 -48 -45 -87.5t-87.5 -62t-119.5 -22.5q-83 0 -142.5 35t-90.5 97t-31 142q0 76 31 136.5t90.5 95t140.5 34.5q89 0 152 -43.5t90 -119.5q11 -29 15.5 -62t4.5 -79h-361q3 -67 30 -96t69 -29q35 0 58 17zM228 390.5q-25 -24.5 -32 -76.5h191
q-5 51 -31 76t-64 25q-39 0 -64 -24.5zM213 564l-118 148h138l58 -76l58 76h138l-118 -148h-156z" />
    <glyph glyph-name="ecircumflex" unicode="&#xea;" horiz-adv-x="584" 
d="M350 112q23 17 27 44h169q-11 -48 -45 -87.5t-87.5 -62t-119.5 -22.5q-83 0 -142.5 35t-90.5 97t-31 142q0 76 31 136.5t90.5 95t140.5 34.5q89 0 152 -43.5t90 -119.5q11 -29 15.5 -62t4.5 -79h-361q3 -67 30 -96t69 -29q35 0 58 17zM228 390.5q-25 -24.5 -32 -76.5h191
q-5 51 -31 76t-64 25q-39 0 -64 -24.5zM291 640l-58 -76h-138l118 148h156l118 -148h-138z" />
    <glyph glyph-name="edieresis" unicode="&#xeb;" horiz-adv-x="584" 
d="M350 112q23 17 27 44h169q-11 -48 -45 -87.5t-87.5 -62t-119.5 -22.5q-83 0 -142.5 35t-90.5 97t-31 142q0 76 31 136.5t90.5 95t140.5 34.5q89 0 152 -43.5t90 -119.5q11 -29 15.5 -62t4.5 -79h-361q3 -67 30 -96t69 -29q35 0 58 17zM228 390.5q-25 -24.5 -32 -76.5h191
q-5 51 -31 76t-64 25q-39 0 -64 -24.5zM107 581v131h143v-131h-143zM334 581v131h142v-131h-142z" />
    <glyph glyph-name="edotaccent" unicode="&#x117;" horiz-adv-x="584" 
d="M350 112q23 17 27 44h169q-11 -48 -45 -87.5t-87.5 -62t-119.5 -22.5q-83 0 -142.5 35t-90.5 97t-31 142q0 76 31 136.5t90.5 95t140.5 34.5q89 0 152 -43.5t90 -119.5q11 -29 15.5 -62t4.5 -79h-361q3 -67 30 -96t69 -29q35 0 58 17zM228 390.5q-25 -24.5 -32 -76.5h191
q-5 51 -31 76t-64 25q-39 0 -64 -24.5zM208 581v131h166v-131h-166z" />
    <glyph glyph-name="egrave" unicode="&#xe8;" horiz-adv-x="584" 
d="M350 112q23 17 27 44h169q-11 -48 -45 -87.5t-87.5 -62t-119.5 -22.5q-83 0 -142.5 35t-90.5 97t-31 142q0 76 31 136.5t90.5 95t140.5 34.5q89 0 152 -43.5t90 -119.5q11 -29 15.5 -62t4.5 -79h-361q3 -67 30 -96t69 -29q35 0 58 17zM228 390.5q-25 -24.5 -32 -76.5h191
q-5 51 -31 76t-64 25q-39 0 -64 -24.5zM387 564h-128l-141 148h191z" />
    <glyph glyph-name="emacron" unicode="&#x113;" horiz-adv-x="584" 
d="M350 112q23 17 27 44h169q-11 -48 -45 -87.5t-87.5 -62t-119.5 -22.5q-83 0 -142.5 35t-90.5 97t-31 142q0 76 31 136.5t90.5 95t140.5 34.5q89 0 152 -43.5t90 -119.5q11 -29 15.5 -62t4.5 -79h-361q3 -67 30 -96t69 -29q35 0 58 17zM228 390.5q-25 -24.5 -32 -76.5h191
q-5 51 -31 76t-64 25q-39 0 -64 -24.5zM112 589v103h359v-103h-359z" />
    <glyph glyph-name="eogonek" unicode="&#x119;" horiz-adv-x="584" 
d="M421 -27.5q-13 -23.5 -13 -46.5q0 -35 34 -35q18 0 34 7v-82q-40 -15 -92 -15q-62 0 -93 24t-31 67q0 52 59 92v2q-16 -2 -25 -2q-83 0 -142.5 35t-90.5 97t-31 142q0 76 31 136.5t90.5 95t140.5 34.5q89 0 152 -43.5t90 -119.5q11 -29 15.5 -62t4.5 -79h-361
q3 -67 30 -96t69 -29q35 0 58 17t27 44h169q-14 -66 -80 -129q-32 -31 -45 -54.5zM228 390.5q-25 -24.5 -32 -76.5h191q-5 51 -31 76t-64 25q-39 0 -64 -24.5z" />
    <glyph glyph-name="gbreve" unicode="&#x11f;" horiz-adv-x="602" 
d="M384 440h2v68h155v-475q0 -115 -66.5 -171.5t-188.5 -56.5q-106 0 -166 43t-68 120h161q2 -26 22 -41t54 -15q44 0 67.5 28t23.5 93v47h-2q-53 -74 -141 -74q-63 0 -109.5 31.5t-72 90t-25.5 136.5t26 136.5t73.5 90t110.5 31.5q90 0 144 -82zM226.5 357.5
q-24.5 -34.5 -24.5 -93.5q0 -58 24.5 -92.5t65.5 -34.5q43 0 68 34.5t25 92.5q0 59 -25 93.5t-68 34.5q-41 0 -65.5 -34.5zM410.5 598.5q-46.5 -40.5 -127.5 -40.5t-127.5 40.5t-50.5 113.5h106q2 -28 20.5 -43t51.5 -15t51.5 15t20.5 43h106q-4 -73 -50.5 -113.5z" />
    <glyph glyph-name="gcircumflex" unicode="&#x11d;" horiz-adv-x="602" 
d="M384 440h2v68h155v-475q0 -115 -66.5 -171.5t-188.5 -56.5q-106 0 -166 43t-68 120h161q2 -26 22 -41t54 -15q44 0 67.5 28t23.5 93v47h-2q-53 -74 -141 -74q-63 0 -109.5 31.5t-72 90t-25.5 136.5t26 136.5t73.5 90t110.5 31.5q90 0 144 -82zM226.5 357.5
q-24.5 -34.5 -24.5 -93.5q0 -58 24.5 -92.5t65.5 -34.5q43 0 68 34.5t25 92.5q0 59 -25 93.5t-68 34.5q-41 0 -65.5 -34.5zM283 640l-58 -76h-138l118 148h156l118 -148h-138z" />
    <glyph glyph-name="gcommaaccent" unicode="&#x123;" horiz-adv-x="602" 
d="M384 440h2v68h155v-475q0 -115 -66.5 -171.5t-188.5 -56.5q-106 0 -166 43t-68 120h161q2 -26 22 -41t54 -15q44 0 67.5 28t23.5 93v47h-2q-53 -74 -141 -74q-63 0 -109.5 31.5t-72 90t-25.5 136.5t26 136.5t73.5 90t110.5 31.5q90 0 144 -82zM226.5 357.5
q-24.5 -34.5 -24.5 -93.5q0 -58 24.5 -92.5t65.5 -34.5q43 0 68 34.5t25 92.5q0 59 -25 93.5t-68 34.5q-41 0 -65.5 -34.5zM350 684v-112h-134v112l71 109h63l-46 -109h46z" />
    <glyph glyph-name="gdotaccent" unicode="&#x121;" horiz-adv-x="602" 
d="M384 440h2v68h155v-475q0 -115 -66.5 -171.5t-188.5 -56.5q-106 0 -166 43t-68 120h161q2 -26 22 -41t54 -15q44 0 67.5 28t23.5 93v47h-2q-53 -74 -141 -74q-63 0 -109.5 31.5t-72 90t-25.5 136.5t26 136.5t73.5 90t110.5 31.5q90 0 144 -82zM226.5 357.5
q-24.5 -34.5 -24.5 -93.5q0 -58 24.5 -92.5t65.5 -34.5q43 0 68 34.5t25 92.5q0 59 -25 93.5t-68 34.5q-41 0 -65.5 -34.5zM200 581v131h166v-131h-166z" />
    <glyph glyph-name="hbar" unicode="&#x127;" 
d="M502.5 467.5q49.5 -53.5 49.5 -155.5v-312h-166v294q0 49 -19 73.5t-55 24.5q-40 0 -62.5 -32.5t-22.5 -96.5v-263h-166v572h-71v73h71v67h166v-67h122v-73h-122v-115h2q25 31 60 47.5t77 16.5q87 0 136.5 -53.5z" />
    <glyph glyph-name="hcircumflex" unicode="&#x125;" 
d="M229 457q25 31 60 47.5t77 16.5q87 0 136.5 -53.5t49.5 -155.5v-312h-166v294q0 49 -19 73.5t-55 24.5q-40 0 -62.5 -32.5t-22.5 -96.5v-263h-166v712h166v-255h2zM381 911l120 -151h-138l-60 79l-60 -79h-138l120 151h156z" />
    <glyph glyph-name="dotlessi" unicode="&#x131;" horiz-adv-x="288" 
d="M61 0v508h166v-508h-166z" />
    <glyph glyph-name="iacute" unicode="&#xed;" horiz-adv-x="288" 
d="M61 0v508h166v-508h-166zM48 564l78 148h191l-141 -148h-128z" />
    <glyph glyph-name="ibreve" unicode="&#x12d;" horiz-adv-x="288" 
d="M61 0v508h166v-508h-166zM261 598.5q-42 -40.5 -117 -40.5t-117 40t-45 114h100q5 -60 62 -60t62 60h100q-3 -73 -45 -113.5z" />
    <glyph glyph-name="icircumflex" unicode="&#xee;" horiz-adv-x="288" 
d="M61 0v508h166v-508h-166zM195 566l-51 71l-50 -71h-131l108 146h146l108 -146h-130z" />
    <glyph glyph-name="idieresis" unicode="&#xef;" horiz-adv-x="288" 
d="M61 0v508h166v-508h-166zM-13 581v131h133v-131h-133zM168 581v131h132v-131h-132z" />
    <glyph glyph-name="i.loclTRK" horiz-adv-x="288" 
d="M61 0v508h166v-508h-166zM61 581v131h166v-131h-166z" />
    <glyph glyph-name="igrave" unicode="&#xec;" horiz-adv-x="288" 
d="M61 0v508h166v-508h-166zM240 564h-128l-141 148h191z" />
    <glyph glyph-name="ij" unicode="&#x133;" horiz-adv-x="577" 
d="M61 581v131h166v-131h-166zM350 581v131h166v-131h-166zM61 0v508h166v-508h-166zM465.5 -143.5q-50.5 -46.5 -136.5 -46.5q-47 0 -80 9v116q12 -3 26 -3q39 0 57 21t18 76v479h166v-507q0 -98 -50.5 -144.5z" />
    <glyph glyph-name="imacron" unicode="&#x12b;" horiz-adv-x="288" 
d="M61 0v508h166v-508h-166zM-6 592v103h300v-103h-300z" />
    <glyph glyph-name="iogonek" unicode="&#x12f;" horiz-adv-x="288" 
d="M61 581v131h166v-131h-166zM230 -102v-82q-42 -15 -93 -15q-61 0 -92 24t-31 67q0 32 20.5 57.5t63.5 50.5h-37v508h166v-508q-36 -24 -50.5 -42t-14.5 -37q0 -30 33 -30q18 0 35 7z" />
    <glyph glyph-name="itilde" unicode="&#x129;" horiz-adv-x="288" 
d="M61 0v508h166v-508h-166zM284 606q-29 -38 -82 -38q-21 0 -36.5 6.5t-35.5 19.5q-15 10 -24.5 14.5t-20.5 4.5q-33 0 -36 -45h-77q3 68 32 106t81 38q21 0 36.5 -6.5t35.5 -19.5q14 -10 24 -14.5t21 -4.5q17 0 26 11t11 34h78q-4 -68 -33 -106z" />
    <glyph glyph-name="dotlessj" unicode="&#x237;" horiz-adv-x="289" 
d="M177.5 -143.5q-50.5 -46.5 -136.5 -46.5q-47 0 -80 9v116q12 -3 26 -3q39 0 57 21t18 76v479h166v-507q0 -98 -50.5 -144.5z" />
    <glyph glyph-name="jcircumflex" unicode="&#x135;" horiz-adv-x="289" 
d="M177.5 -143.5q-50.5 -46.5 -136.5 -46.5q-47 0 -80 9v116q12 -3 26 -3q39 0 57 21t18 76v479h166v-507q0 -98 -50.5 -144.5zM196 566l-51 71l-50 -71h-131l108 146h146l108 -146h-130z" />
    <glyph glyph-name="kcommaaccent" unicode="&#x137;" horiz-adv-x="566" 
d="M372 0l-143 230h-2v-230h-166v712h166v-404h2l136 200h192l-181 -237l200 -271h-204zM293 -275h-63l46 109h-46v112h134v-112z" />
    <glyph glyph-name="kgreenlandic" unicode="&#x138;" horiz-adv-x="577" 
d="M372 0l-143 230h-2v-230h-166v508h166v-200h2l136 200h192l-181 -237l200 -271h-204z" />
    <glyph glyph-name="lacute" unicode="&#x13a;" horiz-adv-x="288" 
d="M61 0v712h166v-712h-166zM61 768l78 148h191l-141 -148h-128z" />
    <glyph glyph-name="lcaron" unicode="&#x13e;" horiz-adv-x="288" 
d="M61 0v712h166v-712h-166zM255 534l24 178h130l-60 -178h-94z" />
    <glyph glyph-name="lcommaaccent" unicode="&#x13c;" horiz-adv-x="288" 
d="M61 0v712h166v-712h-166zM140 -275h-63l46 109h-46v112h134v-112z" />
    <glyph glyph-name="ldot" unicode="&#x140;" horiz-adv-x="513" 
d="M61 0v712h166v-712h-166zM313 264v183h176v-183h-176z" />
    <glyph glyph-name="lslash" unicode="&#x142;" horiz-adv-x="352" 
d="M259 348v-348h-166v269l-83 -49v127l83 49v316h166v-237l83 49v-127z" />
    <glyph glyph-name="nacute" unicode="&#x144;" 
d="M502.5 467.5q49.5 -53.5 49.5 -155.5v-312h-166v294q0 49 -19 73.5t-55 24.5q-40 0 -62.5 -32.5t-22.5 -96.5v-263h-166v508h155v-61h2q26 35 63.5 54.5t84.5 19.5q87 0 136.5 -53.5zM211 564l78 148h191l-141 -148h-128z" />
    <glyph glyph-name="napostrophe" unicode="&#x149;" horiz-adv-x="778" 
d="M130 404h-83l59 152h-49v156h150v-156zM672.5 467.5q49.5 -53.5 49.5 -155.5v-312h-166v294q0 49 -19 73.5t-55 24.5q-40 0 -62.5 -32.5t-22.5 -96.5v-263h-166v508h155v-61h2q26 35 63.5 54.5t84.5 19.5q87 0 136.5 -53.5z" />
    <glyph glyph-name="ncaron" unicode="&#x148;" 
d="M502.5 467.5q49.5 -53.5 49.5 -155.5v-312h-166v294q0 49 -19 73.5t-55 24.5q-40 0 -62.5 -32.5t-22.5 -96.5v-263h-166v508h155v-61h2q26 35 63.5 54.5t84.5 19.5q87 0 136.5 -53.5zM229 564l-118 148h138l58 -76l58 76h138l-118 -148h-156z" />
    <glyph glyph-name="ncommaaccent" unicode="&#x146;" 
d="M502.5 467.5q49.5 -53.5 49.5 -155.5v-312h-166v294q0 49 -19 73.5t-55 24.5q-40 0 -62.5 -32.5t-22.5 -96.5v-263h-166v508h155v-61h2q26 35 63.5 54.5t84.5 19.5q87 0 136.5 -53.5zM303 -275h-63l46 109h-46v112h134v-112z" />
    <glyph glyph-name="eng" unicode="&#x14b;" 
d="M498 475q29 -29 41.5 -69t12.5 -108v-295q0 -98 -50.5 -145t-136.5 -47q-45 0 -80 9v117q12 -3 26 -3q39 0 57 21t18 75v252q0 38 -5 58t-18 33q-20 20 -51 20q-39 0 -62 -32.5t-23 -96.5v-264h-166v508h162v-56h2q28 35 65.5 52.5t79.5 17.5q81 0 128 -47z" />
    <glyph glyph-name="ntilde" unicode="&#xf1;" 
d="M502.5 467.5q49.5 -53.5 49.5 -155.5v-312h-166v294q0 49 -19 73.5t-55 24.5q-40 0 -62.5 -32.5t-22.5 -96.5v-263h-166v508h155v-61h2q26 35 63.5 54.5t84.5 19.5q87 0 136.5 -53.5zM466 607q-32 -38 -89 -38q-23 0 -41.5 6.5t-41.5 18.5q-31 18 -51 18q-37 0 -42 -43
h-89q3 67 35 105t89 38q23 0 39.5 -6t44.5 -19q31 -18 50 -18q20 0 30 10.5t13 32.5h89q-4 -67 -36 -105z" />
    <glyph glyph-name="oacute" unicode="&#xf3;" horiz-adv-x="604" 
d="M445.5 491q61.5 -33 95 -94t33.5 -143t-33.5 -143t-95 -94t-143.5 -33t-143.5 33t-95 94t-33.5 143t33.5 143t95 94t143.5 33t143.5 -33zM230.5 359.5q-25.5 -38.5 -25.5 -105.5t25.5 -105.5t71.5 -38.5t71.5 38.5t25.5 105.5t-25.5 105.5t-71.5 38.5t-71.5 -38.5z
M206 564l78 148h191l-141 -148h-128z" />
    <glyph glyph-name="obreve" unicode="&#x14f;" horiz-adv-x="604" 
d="M445.5 491q61.5 -33 95 -94t33.5 -143t-33.5 -143t-95 -94t-143.5 -33t-143.5 33t-95 94t-33.5 143t33.5 143t95 94t143.5 33t143.5 -33zM230.5 359.5q-25.5 -38.5 -25.5 -105.5t25.5 -105.5t71.5 -38.5t71.5 38.5t25.5 105.5t-25.5 105.5t-71.5 38.5t-71.5 -38.5z
M429.5 598.5q-46.5 -40.5 -127.5 -40.5t-127.5 40.5t-50.5 113.5h106q2 -28 20.5 -43t51.5 -15t51.5 15t20.5 43h106q-4 -73 -50.5 -113.5z" />
    <glyph glyph-name="ocircumflex" unicode="&#xf4;" horiz-adv-x="604" 
d="M445.5 491q61.5 -33 95 -94t33.5 -143t-33.5 -143t-95 -94t-143.5 -33t-143.5 33t-95 94t-33.5 143t33.5 143t95 94t143.5 33t143.5 -33zM230.5 359.5q-25.5 -38.5 -25.5 -105.5t25.5 -105.5t71.5 -38.5t71.5 38.5t25.5 105.5t-25.5 105.5t-71.5 38.5t-71.5 -38.5z
M302 640l-58 -76h-138l118 148h156l118 -148h-138z" />
    <glyph glyph-name="odieresis" unicode="&#xf6;" horiz-adv-x="604" 
d="M445.5 491q61.5 -33 95 -94t33.5 -143t-33.5 -143t-95 -94t-143.5 -33t-143.5 33t-95 94t-33.5 143t33.5 143t95 94t143.5 33t143.5 -33zM230.5 359.5q-25.5 -38.5 -25.5 -105.5t25.5 -105.5t71.5 -38.5t71.5 38.5t25.5 105.5t-25.5 105.5t-71.5 38.5t-71.5 -38.5z
M117 581v131h143v-131h-143zM344 581v131h142v-131h-142z" />
    <glyph glyph-name="ograve" unicode="&#xf2;" horiz-adv-x="604" 
d="M445.5 491q61.5 -33 95 -94t33.5 -143t-33.5 -143t-95 -94t-143.5 -33t-143.5 33t-95 94t-33.5 143t33.5 143t95 94t143.5 33t143.5 -33zM230.5 359.5q-25.5 -38.5 -25.5 -105.5t25.5 -105.5t71.5 -38.5t71.5 38.5t25.5 105.5t-25.5 105.5t-71.5 38.5t-71.5 -38.5z
M398 564h-128l-141 148h191z" />
    <glyph glyph-name="ohungarumlaut" unicode="&#x151;" horiz-adv-x="604" 
d="M445.5 491q61.5 -33 95 -94t33.5 -143t-33.5 -143t-95 -94t-143.5 -33t-143.5 33t-95 94t-33.5 143t33.5 143t95 94t143.5 33t143.5 -33zM230.5 359.5q-25.5 -38.5 -25.5 -105.5t25.5 -105.5t71.5 -38.5t71.5 38.5t25.5 105.5t-25.5 105.5t-71.5 38.5t-71.5 -38.5z
M112 564l98 148h166l-141 -148h-123zM317 564l99 148h166l-141 -148h-124z" />
    <glyph glyph-name="omacron" unicode="&#x14d;" horiz-adv-x="604" 
d="M445.5 491q61.5 -33 95 -94t33.5 -143t-33.5 -143t-95 -94t-143.5 -33t-143.5 33t-95 94t-33.5 143t33.5 143t95 94t143.5 33t143.5 -33zM230.5 359.5q-25.5 -38.5 -25.5 -105.5t25.5 -105.5t71.5 -38.5t71.5 38.5t25.5 105.5t-25.5 105.5t-71.5 38.5t-71.5 -38.5z
M122 589v103h359v-103h-359z" />
    <glyph glyph-name="oslash" unicode="&#xf8;" horiz-adv-x="604" 
d="M554.5 367q19.5 -50 19.5 -113q0 -82 -33.5 -143t-95 -94t-143.5 -33q-73 0 -133 27l-51 -69l-61 44l50 68q-37 36 -57 87t-20 113q0 82 33.5 143t95 94t143.5 33q75 0 134 -28l51 70l61 -46l-50 -67q37 -36 56.5 -86zM222.5 365q-28.5 -41 -28.5 -111q0 -41 11 -76
l155 209q-25 19 -58 19q-51 0 -79.5 -41zM381 143q29 41 29 111q0 39 -11 74l-154 -208q24 -18 57 -18q50 0 79 41z" />
    <glyph glyph-name="otilde" unicode="&#xf5;" horiz-adv-x="604" 
d="M445.5 491q61.5 -33 95 -94t33.5 -143t-33.5 -143t-95 -94t-143.5 -33t-143.5 33t-95 94t-33.5 143t33.5 143t95 94t143.5 33t143.5 -33zM230.5 359.5q-25.5 -38.5 -25.5 -105.5t25.5 -105.5t71.5 -38.5t71.5 38.5t25.5 105.5t-25.5 105.5t-71.5 38.5t-71.5 -38.5z
M461 607q-32 -38 -89 -38q-23 0 -41.5 6.5t-41.5 18.5q-31 18 -51 18q-37 0 -42 -43h-89q3 67 35 105t89 38q23 0 39.5 -6t44.5 -19q31 -18 50 -18q20 0 30 10.5t13 32.5h89q-4 -67 -36 -105z" />
    <glyph glyph-name="oe" unicode="&#x153;" horiz-adv-x="938" 
d="M705.5 112q21.5 17 25.5 44h170q-11 -48 -44.5 -87.5t-86.5 -62t-119 -22.5q-55 0 -100 18t-76 52q-67 -70 -176 -70q-81 0 -142 33t-94 94t-33 143t33 143t94 94t142 33q109 0 176 -70q31 34 75.5 52t98.5 18q89 0 151.5 -43.5t88.5 -119.5q19 -56 19 -141h-354
q3 -67 29 -96t67 -29q34 0 55.5 17zM588.5 390.5q-24.5 -24.5 -31.5 -76.5h184q-4 51 -29 76t-63 25q-36 0 -60.5 -24.5zM373.5 148.5q25.5 38.5 25.5 105.5t-25.5 105.5t-71.5 38.5t-71.5 -38.5t-25.5 -105.5t25.5 -105.5t71.5 -38.5t71.5 38.5z" />
    <glyph glyph-name="thorn" unicode="&#xfe;" horiz-adv-x="610" 
d="M229 453q23 33 59.5 51t77.5 18q64 0 112.5 -33t75 -93.5t26.5 -141.5t-26 -141.5t-74 -93.5t-112 -33q-42 0 -79 18t-60 51h-2v-240h-166v897h166v-259h2zM243.5 358q-25.5 -38 -25.5 -104t25.5 -104t67.5 -38q43 0 69 38.5t26 103.5t-26 103.5t-69 38.5
q-42 0 -67.5 -38z" />
    <glyph glyph-name="racute" unicode="&#x155;" horiz-adv-x="415" 
d="M408 510v-142q-28 5 -51 5q-63 0 -96.5 -38.5t-33.5 -111.5v-223h-166v508h154v-70h2q26 40 61 59t82 19q25 0 48 -6zM124 564l78 148h191l-141 -148h-128z" />
    <glyph glyph-name="rcaron" unicode="&#x159;" horiz-adv-x="415" 
d="M408 510v-142q-28 5 -51 5q-63 0 -96.5 -38.5t-33.5 -111.5v-223h-166v508h154v-70h2q26 40 61 59t82 19q25 0 48 -6zM141 564l-118 148h138l58 -76l58 76h138l-118 -148h-156z" />
    <glyph glyph-name="rcommaaccent" unicode="&#x157;" horiz-adv-x="415" 
d="M408 510v-142q-28 5 -51 5q-63 0 -96.5 -38.5t-33.5 -111.5v-223h-166v508h154v-70h2q26 40 61 59t82 19q25 0 48 -6zM140 -275h-63l46 109h-46v112h134v-112z" />
    <glyph glyph-name="sacute" unicode="&#x15b;" horiz-adv-x="542" 
d="M433 481q59 -43 59 -127h-158q0 65 -68 65q-28 0 -43.5 -10.5t-15.5 -29.5q0 -15 9.5 -24.5t30.5 -17t64 -18.5q64 -17 103.5 -33.5t67.5 -50t28 -88.5q0 -74 -63 -118.5t-173 -44.5q-118 0 -180.5 45t-62.5 136h167q0 -72 78 -72q31 0 47.5 11.5t16.5 30.5
q0 18 -11.5 29t-34 19t-71.5 21q-59 15 -94.5 29.5t-60.5 46t-25 85.5q0 71 59 115t165 44q107 0 166 -43zM172 564l78 148h191l-141 -148h-128z" />
    <glyph glyph-name="scaron" unicode="&#x161;" horiz-adv-x="542" 
d="M433 481q59 -43 59 -127h-158q0 65 -68 65q-28 0 -43.5 -10.5t-15.5 -29.5q0 -15 9.5 -24.5t30.5 -17t64 -18.5q64 -17 103.5 -33.5t67.5 -50t28 -88.5q0 -74 -63 -118.5t-173 -44.5q-118 0 -180.5 45t-62.5 136h167q0 -72 78 -72q31 0 47.5 11.5t16.5 30.5
q0 18 -11.5 29t-34 19t-71.5 21q-59 15 -94.5 29.5t-60.5 46t-25 85.5q0 71 59 115t165 44q107 0 166 -43zM189 564l-118 148h138l58 -76l58 76h138l-118 -148h-156z" />
    <glyph glyph-name="scedilla" unicode="&#x15f;" horiz-adv-x="542" 
d="M455.5 34.5q-54.5 -43.5 -150.5 -49.5l-28 -45q15 5 33 5q39 0 63 -21t24 -57q0 -43 -33.5 -71t-94.5 -28q-65 0 -120 32l26 53q44 -22 81 -22q21 0 32.5 8t11.5 23t-11.5 24t-32.5 9q-17 0 -31 -6l-29 27l42 69q-101 7 -154 51.5t-53 128.5h167q0 -72 78 -72
q31 0 47.5 11.5t16.5 30.5q0 18 -11.5 29t-34 19t-71.5 21q-59 15 -94.5 29.5t-60.5 46t-25 85.5q0 71 59 115t165 44q107 0 166 -43t59 -127h-158q0 65 -68 65q-28 0 -43.5 -10.5t-15.5 -29.5q0 -15 9.5 -24.5t30.5 -17t64 -18.5q64 -17 103.5 -33.5t67.5 -50t28 -88.5
q0 -69 -54.5 -112.5z" />
    <glyph glyph-name="scircumflex" unicode="&#x15d;" horiz-adv-x="542" 
d="M433 481q59 -43 59 -127h-158q0 65 -68 65q-28 0 -43.5 -10.5t-15.5 -29.5q0 -15 9.5 -24.5t30.5 -17t64 -18.5q64 -17 103.5 -33.5t67.5 -50t28 -88.5q0 -74 -63 -118.5t-173 -44.5q-118 0 -180.5 45t-62.5 136h167q0 -72 78 -72q31 0 47.5 11.5t16.5 30.5
q0 18 -11.5 29t-34 19t-71.5 21q-59 15 -94.5 29.5t-60.5 46t-25 85.5q0 71 59 115t165 44q107 0 166 -43zM267 640l-58 -76h-138l118 148h156l118 -148h-138z" />
    <glyph glyph-name="scommaaccent" unicode="&#x219;" horiz-adv-x="542" 
d="M433 481q59 -43 59 -127h-158q0 65 -68 65q-28 0 -43.5 -10.5t-15.5 -29.5q0 -15 9.5 -24.5t30.5 -17t64 -18.5q64 -17 103.5 -33.5t67.5 -50t28 -88.5q0 -74 -63 -118.5t-173 -44.5q-118 0 -180.5 45t-62.5 136h167q0 -72 78 -72q31 0 47.5 11.5t16.5 30.5
q0 18 -11.5 29t-34 19t-71.5 21q-59 15 -94.5 29.5t-60.5 46t-25 85.5q0 71 59 115t165 44q107 0 166 -43zM269 -275h-63l46 109h-46v112h134v-112z" />
    <glyph glyph-name="germandbls" unicode="&#xdf;" horiz-adv-x="587" 
d="M466.5 680q62.5 -48 62.5 -129q0 -117 -123 -156v-2q153 -34 153 -188q0 -101 -63.5 -155t-176.5 -54q-19 0 -43 4v128q8 -1 19 -1q45 0 69 24.5t24 72.5t-26 73.5t-75 25.5h-11v132q49 0 72 19t23 59q0 34 -18 51.5t-51 17.5q-40 0 -57.5 -25t-17.5 -79v-498h-166v509
q0 103 63 161t174 58q106 0 168.5 -48z" />
    <glyph glyph-name="longs" unicode="&#x17f;" horiz-adv-x="361" 
d="M352 712v-114q-10 2 -24 2q-38 0 -56 -17t-18 -57v-526h-164v387h-81v121h81v37q0 88 47 132t136 44q43 0 79 -9z" />
    <glyph glyph-name="tbar" unicode="&#x167;" horiz-adv-x="378" 
d="M353 125v-122q-17 -5 -41 -8t-43 -3q-96 0 -139 39.5t-43 129.5v59h-76v89h76v82h-80v117h80v137h165v-137h96v-117h-96v-82h91v-89h-91v-24q0 -41 14.5 -58.5t49.5 -17.5q20 0 37 5z" />
    <glyph glyph-name="tcaron" unicode="&#x165;" horiz-adv-x="378" 
d="M353 128v-125q-17 -5 -41 -8t-43 -3q-96 0 -139.5 40t-43.5 129v226h-79v121h79v137h166v-137h96v-121h-96v-188q0 -41 15 -58.5t49 -17.5q20 0 37 5zM280 534l24 178h130l-60 -178h-94z" />
    <glyph glyph-name="uni0163" unicode="&#x163;" horiz-adv-x="378" 
d="M353 128v-125q-17 -5 -41 -8t-43 -3q-96 0 -139.5 40t-43.5 129v226h-79v121h79v137h166v-137h96v-121h-96v-188q0 -41 15 -58.5t49 -17.5q20 0 37 5zM278 -54v-112l-71 -109h-63l46 109h-46v112h134z" />
    <glyph glyph-name="uni021B" unicode="&#x21b;" horiz-adv-x="378" 
d="M353 128v-125q-17 -5 -41 -8t-43 -3q-96 0 -139.5 40t-43.5 129v226h-79v121h79v137h166v-137h96v-121h-96v-188q0 -41 15 -58.5t49 -17.5q20 0 37 5zM207 -275h-63l46 109h-46v112h134v-112z" />
    <glyph glyph-name="uacute" unicode="&#xfa;" 
d="M105.5 40.5q-49.5 53.5 -49.5 155.5v312h166v-294q0 -49 19 -73.5t55 -24.5q40 0 62.5 32.5t22.5 96.5v263h166v-508h-155v61h-2q-26 -35 -63.5 -54.5t-84.5 -19.5q-87 0 -136.5 53.5zM209 564l78 148h191l-141 -148h-128z" />
    <glyph glyph-name="ubreve" unicode="&#x16d;" 
d="M105.5 40.5q-49.5 53.5 -49.5 155.5v312h166v-294q0 -49 19 -73.5t55 -24.5q40 0 62.5 32.5t22.5 96.5v263h166v-508h-155v61h-2q-26 -35 -63.5 -54.5t-84.5 -19.5q-87 0 -136.5 53.5zM431.5 598.5q-46.5 -40.5 -127.5 -40.5t-127.5 40.5t-50.5 113.5h106q2 -28 20.5 -43
t51.5 -15t51.5 15t20.5 43h106q-4 -73 -50.5 -113.5z" />
    <glyph glyph-name="ucircumflex" unicode="&#xfb;" 
d="M105.5 40.5q-49.5 53.5 -49.5 155.5v312h166v-294q0 -49 19 -73.5t55 -24.5q40 0 62.5 32.5t22.5 96.5v263h166v-508h-155v61h-2q-26 -35 -63.5 -54.5t-84.5 -19.5q-87 0 -136.5 53.5zM304 640l-58 -76h-138l118 148h156l118 -148h-138z" />
    <glyph glyph-name="udieresis" unicode="&#xfc;" 
d="M105.5 40.5q-49.5 53.5 -49.5 155.5v312h166v-294q0 -49 19 -73.5t55 -24.5q40 0 62.5 32.5t22.5 96.5v263h166v-508h-155v61h-2q-26 -35 -63.5 -54.5t-84.5 -19.5q-87 0 -136.5 53.5zM120 581v131h143v-131h-143zM347 581v131h142v-131h-142z" />
    <glyph glyph-name="ugrave" unicode="&#xf9;" 
d="M105.5 40.5q-49.5 53.5 -49.5 155.5v312h166v-294q0 -49 19 -73.5t55 -24.5q40 0 62.5 32.5t22.5 96.5v263h166v-508h-155v61h-2q-26 -35 -63.5 -54.5t-84.5 -19.5q-87 0 -136.5 53.5zM400 564h-128l-141 148h191z" />
    <glyph glyph-name="uhungarumlaut" unicode="&#x171;" 
d="M105.5 40.5q-49.5 53.5 -49.5 155.5v312h166v-294q0 -49 19 -73.5t55 -24.5q40 0 62.5 32.5t22.5 96.5v263h166v-508h-155v61h-2q-26 -35 -63.5 -54.5t-84.5 -19.5q-87 0 -136.5 53.5zM114 564l98 148h166l-141 -148h-123zM319 564l99 148h166l-141 -148h-124z" />
    <glyph glyph-name="umacron" unicode="&#x16b;" 
d="M105.5 40.5q-49.5 53.5 -49.5 155.5v312h166v-294q0 -49 19 -73.5t55 -24.5q40 0 62.5 32.5t22.5 96.5v263h166v-508h-155v61h-2q-26 -35 -63.5 -54.5t-84.5 -19.5q-87 0 -136.5 53.5zM125 589v103h359v-103h-359z" />
    <glyph glyph-name="uogonek" unicode="&#x173;" 
d="M551 -102v-82q-42 -15 -93 -15q-61 0 -92 24t-31 67q0 32 20.5 57.5t63.5 50.5h-27v61h-2q-26 -35 -63.5 -54.5t-84.5 -19.5q-87 0 -136.5 53.5t-49.5 155.5v312h166v-294q0 -49 19 -73.5t55 -24.5q40 0 62.5 32.5t22.5 96.5v263h166v-508h1q-36 -24 -50.5 -42t-14.5 -37
q0 -30 33 -30q17 0 35 7z" />
    <glyph glyph-name="uring" unicode="&#x16f;" 
d="M105.5 40.5q-49.5 53.5 -49.5 155.5v312h166v-294q0 -49 19 -73.5t55 -24.5q40 0 62.5 32.5t22.5 96.5v263h166v-508h-155v61h-2q-26 -35 -63.5 -54.5t-84.5 -19.5q-87 0 -136.5 53.5zM384.5 746.5q33.5 -33.5 33.5 -80.5t-33.5 -80t-80.5 -33t-80.5 33t-33.5 80
t33.5 80.5t80.5 33.5t80.5 -33.5zM264.5 705.5q-16.5 -16.5 -16.5 -39.5t16.5 -39.5t39.5 -16.5t39.5 16.5t16.5 39.5t-16.5 39.5t-39.5 16.5t-39.5 -16.5z" />
    <glyph glyph-name="utilde" unicode="&#x169;" 
d="M105.5 40.5q-49.5 53.5 -49.5 155.5v312h166v-294q0 -49 19 -73.5t55 -24.5q40 0 62.5 32.5t22.5 96.5v263h166v-508h-155v61h-2q-26 -35 -63.5 -54.5t-84.5 -19.5q-87 0 -136.5 53.5zM463 607q-32 -38 -89 -38q-23 0 -41.5 6.5t-41.5 18.5q-31 18 -51 18q-37 0 -42 -43
h-89q3 67 35 105t89 38q23 0 39.5 -6t44.5 -19q31 -18 50 -18q20 0 30 10.5t13 32.5h89q-4 -67 -36 -105z" />
    <glyph glyph-name="wacute" unicode="&#x1e83;" horiz-adv-x="848" 
d="M504 0l-41 191q-23 109 -38 213h-2q-15 -104 -38 -213l-41 -191h-227l-113 508h162l33 -187q20 -111 32 -216h2q18 119 41 217l42 186h216l42 -186q23 -98 41 -217h2q12 105 32 216l33 187h162l-113 -508h-227zM328 564l78 148h191l-141 -148h-128z" />
    <glyph glyph-name="wcircumflex" unicode="&#x175;" horiz-adv-x="848" 
d="M504 0l-41 191q-23 109 -38 213h-2q-15 -104 -38 -213l-41 -191h-227l-113 508h162l33 -187q20 -111 32 -216h2q18 119 41 217l42 186h216l42 -186q23 -98 41 -217h2q12 105 32 216l33 187h162l-113 -508h-227zM424 640l-58 -76h-138l118 148h156l118 -148h-138z" />
    <glyph glyph-name="wdieresis" unicode="&#x1e85;" horiz-adv-x="848" 
d="M504 0l-41 191q-23 109 -38 213h-2q-15 -104 -38 -213l-41 -191h-227l-113 508h162l33 -187q20 -111 32 -216h2q18 119 41 217l42 186h216l42 -186q23 -98 41 -217h2q12 105 32 216l33 187h162l-113 -508h-227zM239 581v131h143v-131h-143zM466 581v131h142v-131h-142z
" />
    <glyph glyph-name="wgrave" unicode="&#x1e81;" horiz-adv-x="848" 
d="M504 0l-41 191q-23 109 -38 213h-2q-15 -104 -38 -213l-41 -191h-227l-113 508h162l33 -187q20 -111 32 -216h2q18 119 41 217l42 186h216l42 -186q23 -98 41 -217h2q12 105 32 216l33 187h162l-113 -508h-227zM520 564h-128l-141 148h191z" />
    <glyph glyph-name="yacute" unicode="&#xfd;" horiz-adv-x="530" 
d="M311.5 -110.5q-31.5 -43.5 -76 -62.5t-110.5 -19q-43 0 -86 9v126q24 -8 51 -8q35 0 56 17.5t21 48.5q0 14 -5 31.5t-23 66.5l-149 409h179l49 -170q32 -118 51 -212h2q21 107 51 213l47 169h169l-169 -499q-26 -76 -57.5 -119.5zM171 564l78 148h191l-141 -148h-128z
" />
    <glyph glyph-name="ycircumflex" unicode="&#x177;" horiz-adv-x="530" 
d="M311.5 -110.5q-31.5 -43.5 -76 -62.5t-110.5 -19q-43 0 -86 9v126q24 -8 51 -8q35 0 56 17.5t21 48.5q0 14 -5 31.5t-23 66.5l-149 409h179l49 -170q32 -118 51 -212h2q21 107 51 213l47 169h169l-169 -499q-26 -76 -57.5 -119.5zM267 640l-58 -76h-138l118 148h156
l118 -148h-138z" />
    <glyph glyph-name="ydieresis" unicode="&#xff;" horiz-adv-x="530" 
d="M311.5 -110.5q-31.5 -43.5 -76 -62.5t-110.5 -19q-43 0 -86 9v126q24 -8 51 -8q35 0 56 17.5t21 48.5q0 14 -5 31.5t-23 66.5l-149 409h179l49 -170q32 -118 51 -212h2q21 107 51 213l47 169h169l-169 -499q-26 -76 -57.5 -119.5zM82 581v131h143v-131h-143zM309 581v131
h142v-131h-142z" />
    <glyph glyph-name="ygrave" unicode="&#x1ef3;" horiz-adv-x="530" 
d="M311.5 -110.5q-31.5 -43.5 -76 -62.5t-110.5 -19q-43 0 -86 9v126q24 -8 51 -8q35 0 56 17.5t21 48.5q0 14 -5 31.5t-23 66.5l-149 409h179l49 -170q32 -118 51 -212h2q21 107 51 213l47 169h169l-169 -499q-26 -76 -57.5 -119.5zM363 564h-128l-141 148h191z" />
    <glyph glyph-name="zacute" unicode="&#x17a;" horiz-adv-x="502" 
d="M233 129v-2h240v-127h-444v131l231 248v2h-222v127h427v-131zM154 564l78 148h191l-141 -148h-128z" />
    <glyph glyph-name="zcaron" unicode="&#x17e;" horiz-adv-x="502" 
d="M233 129v-2h240v-127h-444v131l231 248v2h-222v127h427v-131zM171 564l-118 148h138l58 -76l58 76h138l-118 -148h-156z" />
    <glyph glyph-name="zdotaccent" unicode="&#x17c;" horiz-adv-x="502" 
d="M233 129v-2h240v-127h-444v131l231 248v2h-222v127h427v-131zM166 581v131h166v-131h-166z" />
    <glyph glyph-name="j.acute.loclNLD" horiz-adv-x="289" 
d="M177.5 -143.5q-50.5 -46.5 -136.5 -46.5q-47 0 -80 9v116q12 -3 26 -3q39 0 57 21t18 76v479h166v-507q0 -98 -50.5 -144.5zM49 564l78 148h191l-141 -148h-128z" />
    <glyph glyph-name="ccedilla.ss01" horiz-adv-x="575" 
d="M421.5 497.5q55.5 -26.5 89 -74t38.5 -109.5h-172q-4 40 -25.5 62.5t-55.5 22.5q-43 0 -67.5 -38t-24.5 -106q0 -69 24.5 -107t68.5 -38q34 0 55.5 25t23.5 69h173q-8 -101 -76.5 -160.5t-176.5 -59.5q-80 0 -140.5 33.5t-93 94.5t-32.5 143q0 81 32.5 142t92.5 94
t140 33q71 0 126.5 -26.5zM106 -217l141 168h133l-98 -168h-176z" />
    <glyph glyph-name="scedilla.ss01" horiz-adv-x="542" 
d="M433 481q59 -43 59 -127h-158q0 65 -68 65q-28 0 -43.5 -10.5t-15.5 -29.5q0 -15 9.5 -24.5t30.5 -17t64 -18.5q64 -17 103.5 -33.5t67.5 -50t28 -88.5q0 -74 -63 -118.5t-173 -44.5q-118 0 -180.5 45t-62.5 136h167q0 -72 78 -72q31 0 47.5 11.5t16.5 30.5
q0 18 -11.5 29t-34 19t-71.5 21q-59 15 -94.5 29.5t-60.5 46t-25 85.5q0 71 59 115t165 44q107 0 166 -43zM84 -217l141 168h133l-98 -168h-176z" />
    <glyph glyph-name="uni0163.ss01" horiz-adv-x="378" 
d="M353 128v-125q-17 -5 -41 -8t-43 -3q-96 0 -139.5 40t-43.5 129v226h-79v121h79v137h166v-137h96v-121h-96v-188q0 -41 15 -58.5t49 -17.5q20 0 37 5zM22 -217l141 168h133l-98 -168h-176z" />
    <glyph glyph-name="a.sups" horiz-adv-x="419" 
d="M336 659q43 -38 43 -110v-115q0 -65 12 -104h-122q-6 20 -6 45h-2q-42 -55 -118 -55q-59 0 -93.5 31.5t-34.5 80.5q0 48 35 76t114 40q50 7 84 9v13q0 48 -44 48q-42 0 -44 -45h-130q4 54 47 89t129 35q87 0 130 -38zM191 482q-23 -5 -32.5 -15t-9.5 -26q0 -17 10.5 -27
t29.5 -10q28 0 44 17q9 10 12 22t3 34v12q-27 0 -57 -7z" />
    <glyph glyph-name="b.sups" horiz-adv-x="452" 
d="M181 652q16 21 41.5 32.5t53.5 11.5q71 0 113 -51t42 -137t-43 -137.5t-115 -51.5q-30 0 -56 13t-42 39h-2v-41h-130v498h136v-176h2zM187.5 570.5q-15.5 -23.5 -15.5 -62.5q0 -40 15.5 -63t42.5 -23t43.5 23.5t16.5 62.5q0 40 -16.5 63t-43.5 23t-42.5 -23.5z" />
    <glyph glyph-name="c.sups" horiz-adv-x="427" 
d="M350 656q52 -41 59 -110h-140q-2 24 -15.5 37t-34.5 13q-26 0 -41 -23t-15 -64q0 -43 15 -66t42 -23q21 0 34 15.5t14 41.5h141q-5 -73 -57 -115.5t-134 -42.5q-90 0 -143.5 51.5t-53.5 138.5q0 86 53 137t143 51q81 0 133 -41z" />
    <glyph glyph-name="d.sups" horiz-adv-x="453" 
d="M410 330h-131v41h-1q-16 -26 -42 -39t-57 -13q-72 0 -115 51.5t-43 137.5t42 137t113 51q29 0 54.5 -11.5t41.5 -32.5h2v176h136v-498zM179 571q-16 -23 -16 -63t16 -63t44 -23q27 0 42.5 23t15.5 63q0 39 -15.5 62.5t-42.5 23.5q-28 0 -44 -23z" />
    <glyph glyph-name="e.sups" horiz-adv-x="431" 
d="M250.5 415.5q14.5 9.5 16.5 24.5h138q-12 -53 -63.5 -87t-124.5 -34q-93 0 -144.5 53.5t-51.5 137.5q0 53 23 95.5t67 67t104 24.5q67 0 113 -28.5t67 -81.5q9 -20 12 -44t3 -63h-256q4 -74 61 -74q21 0 35.5 9.5zM155 551h119q-2 32 -18.5 47t-40.5 15q-51 0 -60 -62z
" />
    <glyph glyph-name="egrave.sups" horiz-adv-x="431" 
d="M56 828h164l73 -104h-119zM250.5 415.5q14.5 9.5 16.5 24.5h138q-12 -53 -63.5 -87t-124.5 -34q-93 0 -144.5 53.5t-51.5 137.5q0 53 23 95.5t67 67t104 24.5q67 0 113 -28.5t67 -81.5q9 -20 12 -44t3 -63h-256q4 -74 61 -74q21 0 35.5 9.5zM155 551h119q-2 32 -18.5 47
t-40.5 15q-51 0 -60 -62z" />
    <glyph glyph-name="f.sups" horiz-adv-x="274" 
d="M210.5 727.5q-12.5 -11.5 -12.5 -37.5v-4h66v-97h-66v-259h-136v259h-56v97h56v19q0 65 36.5 98t106.5 33q29 0 63 -8v-91q-8 2 -18 2q-27 0 -39.5 -11.5z" />
    <glyph glyph-name="g.sups" horiz-adv-x="445" 
d="M230.5 681q26.5 -15 44.5 -42h1v47h127v-331q0 -163 -193 -163q-78 0 -122.5 30.5t-50.5 86.5h128q2 -17 14 -26t33 -9q29 0 44 17t15 59v39h-2q-17 -23 -43.5 -36t-56.5 -13q-68 0 -108 48.5t-40 129.5q0 82 40.5 130t110.5 48q32 0 58.5 -15zM175.5 574.5
q-15.5 -20.5 -15.5 -56.5t15.5 -56.5t41.5 -20.5q27 0 42.5 21t15.5 56t-15.5 56t-42.5 21q-26 0 -41.5 -20.5z" />
    <glyph glyph-name="h.sups" horiz-adv-x="449" 
d="M181 654q16 20 41 31t55 11q62 0 97.5 -38t35.5 -109v-219h-135v202q0 59 -45 59q-51 0 -51 -83v-178h-136v498h136v-174h2z" />
    <glyph glyph-name="i.sups" horiz-adv-x="221" 
d="M43 729v99h136v-99h-136zM43 330v356h136v-356h-136z" />
    <glyph glyph-name="j.sups" horiz-adv-x="224" 
d="M45 729v99h136v-99h-136zM142 232.5q-39 -35.5 -104 -35.5q-41 0 -65 7v93q12 -2 18 -2q28 0 41 15t13 54v322h136v-346q0 -72 -39 -107.5z" />
    <glyph glyph-name="k.sups" horiz-adv-x="425" 
d="M267 330l-86 155h-2v-155h-136v499h136v-279h2l80 136h159l-123 -168l135 -188h-165z" />
    <glyph glyph-name="l.sups" horiz-adv-x="221" 
d="M43 330v498h136v-498h-136z" />
    <glyph glyph-name="m.sups" horiz-adv-x="667" 
d="M594 658q34 -38 34 -109v-219h-136v202q0 29 -10.5 44t-29.5 15q-49 0 -49 -83v-178h-135v206q0 55 -40 55q-49 0 -49 -83v-178h-136v356h126v-41h2q38 51 104 51q76 0 108 -62q42 62 117 62q60 0 94 -38z" />
    <glyph glyph-name="n.sups" horiz-adv-x="449" 
d="M374.5 658q35.5 -38 35.5 -109v-219h-135v202q0 59 -45 59q-51 0 -51 -83v-178h-136v356h126v-41h1q41 51 107 51q62 0 97.5 -38z" />
    <glyph glyph-name="o.sups" horiz-adv-x="444" 
d="M368.5 645.5q54.5 -51.5 54.5 -137.5q0 -87 -54.5 -138t-146.5 -51t-146.5 51t-54.5 138q0 86 54.5 137.5t146.5 51.5t146.5 -51.5zM178.5 573q-15.5 -23 -15.5 -65t15.5 -65t43.5 -23t43.5 23t15.5 65t-15.5 65t-43.5 23t-43.5 -23z" />
    <glyph glyph-name="p.sups" horiz-adv-x="452" 
d="M388 645q43 -51 43 -137t-42 -137.5t-113 -51.5q-29 0 -54.5 11.5t-40.5 32.5h-2v-162h-136v485h130v-41h2q16 25 42 38t56 13q72 0 115 -51zM187.5 570.5q-15.5 -23.5 -15.5 -62.5q0 -40 15.5 -63t42.5 -23t43.5 23.5t16.5 62.5q0 40 -16.5 63t-43.5 23t-42.5 -23.5z
" />
    <glyph glyph-name="q.sups" horiz-adv-x="453" 
d="M236 683q26 -13 42 -38h1v41h131v-485h-136v162h-2q-16 -21 -41.5 -32.5t-54.5 -11.5q-71 0 -113 51.5t-42 137.5t43 137t115 51q31 0 57 -13zM179 571q-16 -23 -16 -63t16 -63t44 -23q27 0 42.5 23t15.5 63q0 39 -15.5 62.5t-42.5 23.5q-28 0 -44 -23z" />
    <glyph glyph-name="r.sups" horiz-adv-x="317" 
d="M312 687v-115q-24 4 -41 4q-45 0 -68.5 -26.5t-23.5 -76.5v-143h-136v356h126v-48h2q37 53 105 53q21 0 36 -4z" />
    <glyph glyph-name="s.sups" horiz-adv-x="405" 
d="M325.5 667.5q44.5 -29.5 44.5 -88.5h-129q0 39 -41 39q-18 0 -27 -6t-9 -17q0 -13 13.5 -20t58.5 -19q46 -12 76 -24t50.5 -35.5t20.5 -61.5q0 -53 -46 -84.5t-130 -31.5q-185 0 -185 127h136q0 -23 12 -33.5t37 -10.5q19 0 29.5 6.5t10.5 17.5q0 16 -16 23.5t-68 20.5
q-42 11 -68.5 21.5t-45 33t-18.5 59.5q0 51 43 82t127 31q80 0 124.5 -29.5z" />
    <glyph glyph-name="t.sups" horiz-adv-x="286" 
d="M268 433v-101q-41 -9 -67 -9q-73 0 -106.5 29t-33.5 93v144h-56v97h56v99h135v-99h68v-97h-68v-107q0 -28 10.5 -40t34.5 -12q16 0 27 3z" />
    <glyph glyph-name="u.sups" horiz-adv-x="449" 
d="M74.5 358q-35.5 38 -35.5 109v219h136v-202q0 -29 11 -44t33 -15q52 0 52 83v178h135v-356h-126v41h-1q-19 -24 -46 -37.5t-60 -13.5q-63 0 -98.5 38z" />
    <glyph glyph-name="v.sups" horiz-adv-x="400" 
d="M108 330l-114 356h146l30 -120q19 -82 29 -148h2q10 66 29 148l30 120h146l-114 -356h-184z" />
    <glyph glyph-name="w.sups" horiz-adv-x="635" 
d="M370 330l-26 127q-17 79 -26 147h-1q-12 -82 -25 -147l-27 -127h-180l-82 356h131l21 -124q14 -88 19 -148h2q12 83 28 150l28 122h171l29 -122q19 -83 28 -150h2q5 60 19 148l20 124h131l-82 -356h-180z" />
    <glyph glyph-name="x.sups" horiz-adv-x="402" 
d="M406 330h-153l-51 108h-2l-51 -108h-153l119 183l-111 173h152l44 -98h2l44 98h152l-111 -173z" />
    <glyph glyph-name="y.sups" horiz-adv-x="401" 
d="M251.5 258q-23.5 -34 -56 -48.5t-81.5 -14.5q-35 0 -68 7v98q17 -5 34 -5q22 0 34.5 9.5t12.5 25.5q0 9 -5 25t-18 48l-111 283h148l32 -119q22 -80 34 -147h2q13 77 31 148l28 118h138l-111 -334q-20 -60 -43.5 -94z" />
    <glyph glyph-name="z.sups" horiz-adv-x="371" 
d="M190 434v-2h161v-102h-330v105l155 147v2h-150v102h319v-105z" />
    <glyph glyph-name="ff" unicode="&#xfb00;" horiz-adv-x="690" 
d="M601 583q-18 -17 -18 -57v-18h94v-121h-94v-387h-164v387h-165v-387h-164v387h-81v121h81v37q0 88 47 132t136 44q43 0 79 -9v-114q-10 2 -24 2q-38 0 -56 -17t-18 -57v-18h165v37q0 88 47 132t136 44q43 0 79 -9v-114q-10 2 -24 2q-38 0 -56 -17z" />
    <glyph glyph-name="ffi" unicode="&#xfb03;" horiz-adv-x="978" 
d="M466 677q47 44 136 44q43 0 79 -9v-114q-10 2 -24 2q-38 0 -56 -17t-18 -57v-18h94v-121h-94v-387h-164v387h-165v-387h-164v387h-81v121h81v37q0 88 47 132t136 44q43 0 79 -9v-114q-10 2 -24 2q-38 0 -56 -17t-18 -57v-18h165v37q0 88 47 132zM917 581h-166v131h166
v-131zM917 508v-508h-166v508h166z" />
    <glyph glyph-name="ffl" unicode="&#xfb04;" horiz-adv-x="978" 
d="M466 677q47 44 136 44q43 0 79 -9v-114q-10 2 -24 2q-38 0 -56 -17t-18 -57v-18h94v-121h-94v-387h-164v387h-165v-387h-164v387h-81v121h81v37q0 88 47 132t136 44q43 0 79 -9v-114q-10 2 -24 2q-38 0 -56 -17t-18 -57v-18h165v37q0 88 47 132zM917 0h-166v712h166v-712
z" />
    <glyph glyph-name="fi" unicode="&#xfb01;" horiz-adv-x="649" 
d="M137 677q47 44 136 44q43 0 79 -9v-114q-10 2 -24 2q-38 0 -56 -17t-18 -57v-18h94v-121h-94v-387h-164v387h-81v121h81v37q0 88 47 132zM588 581h-166v131h166v-131zM588 508v-508h-166v508h166z" />
    <glyph glyph-name="fl" unicode="&#xfb02;" horiz-adv-x="649" 
d="M272 583q-18 -17 -18 -57v-18h94v-121h-94v-387h-164v387h-81v121h81v37q0 88 47 132t136 44q43 0 79 -9v-114q-10 2 -24 2q-38 0 -56 -17zM422 0v712h166v-712h-166z" />
    <glyph glyph-name="a.smcp" horiz-adv-x="613" 
d="M208 97l-29 -97h-178l193 548h225l194 -548h-178l-29 97h-198zM359 256q-30 94 -51 183h-2q-22 -88 -51 -183l-10 -35h125z" />
    <glyph glyph-name="aacute.smcp" horiz-adv-x="613" 
d="M208 97l-29 -97h-178l193 548h225l194 -548h-178l-29 97h-198zM359 256q-30 94 -51 183h-2q-22 -88 -51 -183l-10 -35h125zM211 604l78 148h191l-141 -148h-128z" />
    <glyph glyph-name="abreve.smcp" horiz-adv-x="613" 
d="M208 97l-29 -97h-178l193 548h225l194 -548h-178l-29 97h-198zM359 256q-30 94 -51 183h-2q-22 -88 -51 -183l-10 -35h125zM434.5 638.5q-46.5 -40.5 -127.5 -40.5t-127.5 40.5t-50.5 113.5h106q2 -28 20.5 -43t51.5 -15t51.5 15t20.5 43h106q-4 -73 -50.5 -113.5z" />
    <glyph glyph-name="acircumflex.smcp" horiz-adv-x="613" 
d="M208 97l-29 -97h-178l193 548h225l194 -548h-178l-29 97h-198zM359 256q-30 94 -51 183h-2q-22 -88 -51 -183l-10 -35h125zM306 680l-58 -76h-138l118 148h156l118 -148h-138z" />
    <glyph glyph-name="adieresis.smcp" horiz-adv-x="613" 
d="M208 97l-29 -97h-178l193 548h225l194 -548h-178l-29 97h-198zM359 256q-30 94 -51 183h-2q-22 -88 -51 -183l-10 -35h125zM122 621v131h143v-131h-143zM349 621v131h142v-131h-142z" />
    <glyph glyph-name="agrave.smcp" horiz-adv-x="613" 
d="M208 97l-29 -97h-178l193 548h225l194 -548h-178l-29 97h-198zM359 256q-30 94 -51 183h-2q-22 -88 -51 -183l-10 -35h125zM402 604h-128l-141 148h191z" />
    <glyph glyph-name="amacron.smcp" horiz-adv-x="613" 
d="M208 97l-29 -97h-178l193 548h225l194 -548h-178l-29 97h-198zM359 256q-30 94 -51 183h-2q-22 -88 -51 -183l-10 -35h125zM127 629v103h359v-103h-359z" />
    <glyph glyph-name="aogonek.smcp" horiz-adv-x="613" 
d="M208 97l-29 -97h-178l193 548h225l194 -548h-178l-29 97h-198zM359 256q-30 94 -51 183h-2q-22 -88 -51 -183l-10 -35h125zM562.5 -42q-14.5 -18 -14.5 -37q0 -30 33 -30q18 0 35 7v-82q-42 -15 -93 -15q-61 0 -92 24t-31 67q0 32 20.5 57.5t63.5 50.5h129
q-36 -24 -50.5 -42z" />
    <glyph glyph-name="aring.smcp" horiz-adv-x="613" 
d="M208 97l-29 -97h-178l193 548h225l194 -548h-178l-29 97h-198zM359 256q-30 94 -51 183h-2q-22 -88 -51 -183l-10 -35h125zM387.5 786.5q33.5 -33.5 33.5 -80.5t-33.5 -80t-80.5 -33t-80.5 33t-33.5 80t33.5 80.5t80.5 33.5t80.5 -33.5zM267.5 745.5
q-16.5 -16.5 -16.5 -39.5t16.5 -39.5t39.5 -16.5t39.5 16.5t16.5 39.5t-16.5 39.5t-39.5 16.5t-39.5 -16.5z" />
    <glyph glyph-name="atilde.smcp" horiz-adv-x="613" 
d="M208 97l-29 -97h-178l193 548h225l194 -548h-178l-29 97h-198zM359 256q-30 94 -51 183h-2q-22 -88 -51 -183l-10 -35h125zM466 647q-32 -38 -89 -38q-23 0 -41.5 6.5t-41.5 18.5q-31 18 -51 18q-37 0 -42 -43h-89q3 67 35 105t89 38q23 0 39.5 -6t44.5 -19
q31 -18 50 -18q20 0 30 10.5t13 32.5h89q-4 -67 -36 -105z" />
    <glyph glyph-name="ae.smcp" horiz-adv-x="812" 
d="M769 0h-344l-17 106h-196l-45 -106h-172l250 548h520v-130h-252l12 -79h220v-126h-200l13 -83h211v-130zM359 420h-12l-80 -187h122z" />
    <glyph glyph-name="b.smcp" horiz-adv-x="589" 
d="M484.5 510q53.5 -38 53.5 -103q0 -50 -24 -80t-75 -43v-2q114 -22 114 -128q0 -71 -58 -112.5t-160 -41.5h-267v548h256q107 0 160.5 -38zM234 331h59q42 0 61.5 12.5t19.5 38.5t-18 38t-57 12h-65v-101zM234 117h61q47 0 65.5 11.5t18.5 39.5q0 29 -19.5 41.5
t-65.5 12.5h-60v-105z" />
    <glyph glyph-name="c.smcp" horiz-adv-x="612" 
d="M494 506q71 -58 75 -162h-175q-4 40 -27 61t-61 21q-46 0 -73 -40t-27 -112t27 -112t74 -40q36 0 59.5 22.5t28.5 62.5h177q-9 -108 -79.5 -165.5t-185.5 -57.5q-129 0 -202.5 77t-73.5 213q0 89 33.5 154.5t95.5 100.5t146 35q117 0 188 -58z" />
    <glyph glyph-name="cacute.smcp" horiz-adv-x="612" 
d="M494 506q71 -58 75 -162h-175q-4 40 -27 61t-61 21q-46 0 -73 -40t-27 -112t27 -112t74 -40q36 0 59.5 22.5t28.5 62.5h177q-9 -108 -79.5 -165.5t-185.5 -57.5q-129 0 -202.5 77t-73.5 213q0 89 33.5 154.5t95.5 100.5t146 35q117 0 188 -58zM210 604l78 148h191
l-141 -148h-128z" />
    <glyph glyph-name="ccaron.smcp" horiz-adv-x="612" 
d="M494 506q71 -58 75 -162h-175q-4 40 -27 61t-61 21q-46 0 -73 -40t-27 -112t27 -112t74 -40q36 0 59.5 22.5t28.5 62.5h177q-9 -108 -79.5 -165.5t-185.5 -57.5q-129 0 -202.5 77t-73.5 213q0 89 33.5 154.5t95.5 100.5t146 35q117 0 188 -58zM227 604l-118 148h138
l58 -76l58 76h138l-118 -148h-156z" />
    <glyph glyph-name="ccedilla.smcp" horiz-adv-x="612" 
d="M502 50q-62 -57 -163 -65l-28 -45q15 5 33 5q39 0 63 -21t24 -57q0 -43 -33.5 -71t-94.5 -28q-65 0 -120 32l26 53q44 -22 81 -22q21 0 32.5 8t11.5 23t-11.5 24t-32.5 9q-18 0 -31 -6l-29 27l42 70q-113 10 -177 86t-64 202q0 89 33.5 154.5t95.5 100.5t146 35
q117 0 188 -58t75 -162h-175q-4 40 -27 61t-61 21q-46 0 -73 -40t-27 -112t27 -112t74 -40q36 0 59.5 22.5t28.5 62.5h177q-8 -100 -70 -157z" />
    <glyph glyph-name="ccircumflex.smcp" horiz-adv-x="612" 
d="M494 506q71 -58 75 -162h-175q-4 40 -27 61t-61 21q-46 0 -73 -40t-27 -112t27 -112t74 -40q36 0 59.5 22.5t28.5 62.5h177q-9 -108 -79.5 -165.5t-185.5 -57.5q-129 0 -202.5 77t-73.5 213q0 89 33.5 154.5t95.5 100.5t146 35q117 0 188 -58zM305 680l-58 -76h-138
l118 148h156l118 -148h-138z" />
    <glyph glyph-name="cdotaccent.smcp" horiz-adv-x="612" 
d="M494 506q71 -58 75 -162h-175q-4 40 -27 61t-61 21q-46 0 -73 -40t-27 -112t27 -112t74 -40q36 0 59.5 22.5t28.5 62.5h177q-9 -108 -79.5 -165.5t-185.5 -57.5q-129 0 -202.5 77t-73.5 213q0 89 33.5 154.5t95.5 100.5t146 35q117 0 188 -58zM222 621v131h166v-131h-166
z" />
    <glyph glyph-name="d.smcp" horiz-adv-x="636" 
d="M523.5 477q81.5 -71 81.5 -203q0 -131 -81.5 -202.5t-232.5 -71.5h-223v548h223q151 0 232.5 -71zM237 135h50q70 0 106.5 35.5t36.5 103.5t-36.5 103.5t-106.5 35.5h-50v-278z" />
    <glyph glyph-name="eth.smcp" horiz-adv-x="640" 
d="M528.5 477q81.5 -71 81.5 -203q0 -131 -81.5 -202.5t-232.5 -71.5h-223v229h-59v96h59v223h223q151 0 232.5 -71zM401 168q37 37 37 106t-37 106t-109 37h-53v-92h102v-96h-102v-98h53q72 0 109 37z" />
    <glyph glyph-name="dcaron.smcp" horiz-adv-x="636" 
d="M523.5 477q81.5 -71 81.5 -203q0 -131 -81.5 -202.5t-232.5 -71.5h-223v548h223q151 0 232.5 -71zM237 135h50q70 0 106.5 35.5t36.5 103.5t-36.5 103.5t-106.5 35.5h-50v-278zM222 604l-118 148h138l58 -76l58 76h138l-118 -148h-156z" />
    <glyph glyph-name="dcroat.smcp" horiz-adv-x="640" 
d="M528.5 477q81.5 -71 81.5 -203q0 -131 -81.5 -202.5t-232.5 -71.5h-223v229h-59v96h59v223h223q151 0 232.5 -71zM401 168q37 37 37 106t-37 106t-109 37h-53v-92h102v-96h-102v-98h53q72 0 109 37z" />
    <glyph glyph-name="e.smcp" horiz-adv-x="535" 
d="M228 418v-79h241v-126h-241v-83h264v-130h-424v548h421v-130h-261z" />
    <glyph glyph-name="eacute.smcp" horiz-adv-x="535" 
d="M228 418v-79h241v-126h-241v-83h264v-130h-424v548h421v-130h-261zM183 604l78 148h191l-141 -148h-128z" />
    <glyph glyph-name="ebreve.smcp" horiz-adv-x="535" 
d="M228 418v-79h241v-126h-241v-83h264v-130h-424v548h421v-130h-261zM406.5 638.5q-46.5 -40.5 -127.5 -40.5t-127.5 40.5t-50.5 113.5h106q2 -28 20.5 -43t51.5 -15t51.5 15t20.5 43h106q-4 -73 -50.5 -113.5z" />
    <glyph glyph-name="ecaron.smcp" horiz-adv-x="535" 
d="M228 418v-79h241v-126h-241v-83h264v-130h-424v548h421v-130h-261zM200 604l-118 148h138l58 -76l58 76h138l-118 -148h-156z" />
    <glyph glyph-name="ecircumflex.smcp" horiz-adv-x="535" 
d="M228 418v-79h241v-126h-241v-83h264v-130h-424v548h421v-130h-261zM278 680l-58 -76h-138l118 148h156l118 -148h-138z" />
    <glyph glyph-name="edieresis.smcp" horiz-adv-x="535" 
d="M228 418v-79h241v-126h-241v-83h264v-130h-424v548h421v-130h-261zM94 621v131h143v-131h-143zM321 621v131h142v-131h-142z" />
    <glyph glyph-name="edotaccent.smcp" horiz-adv-x="535" 
d="M228 418v-79h241v-126h-241v-83h264v-130h-424v548h421v-130h-261zM196 621v131h166v-131h-166z" />
    <glyph glyph-name="egrave.smcp" horiz-adv-x="535" 
d="M228 418v-79h241v-126h-241v-83h264v-130h-424v548h421v-130h-261zM374 604h-128l-141 148h191z" />
    <glyph glyph-name="emacron.smcp" horiz-adv-x="535" 
d="M228 418v-79h241v-126h-241v-83h264v-130h-424v548h421v-130h-261zM99 629v103h359v-103h-359z" />
    <glyph glyph-name="eogonek.smcp" horiz-adv-x="535" 
d="M228 418v-79h241v-126h-241v-83h264v-130h-424v548h421v-130h-261zM442.5 -42q-14.5 -18 -14.5 -37q0 -30 33 -30q18 0 35 7v-82q-42 -15 -93 -15q-61 0 -92 24t-31 67q0 32 20.5 57.5t63.5 50.5h129q-36 -24 -50.5 -42z" />
    <glyph glyph-name="f.smcp" horiz-adv-x="496" 
d="M228 415v-101h231v-133h-231v-181h-160v548h409v-133h-249z" />
    <glyph glyph-name="fi.smcp" horiz-adv-x="801" 
d="M228 415v-101h231v-133h-231v-181h-160v548h409v-133h-249zM564 0v548h170v-548h-170z" />
    <glyph glyph-name="fl.smcp" horiz-adv-x="995" 
d="M228 415v-101h231v-133h-231v-181h-160v548h409v-133h-249zM986 141v-141h-422v548h170v-407h252z" />
    <glyph glyph-name="g.smcp" horiz-adv-x="639" 
d="M501 512q69 -52 79 -141h-177q-6 30 -27 46t-55 16q-53 0 -84 -42t-31 -119q0 -78 30.5 -121t84.5 -43q46 0 72 23.5t28 64.5h-110v118h267v-314h-143v46h-2q-52 -59 -153 -59q-76 0 -132.5 34.5t-86.5 98.5t-30 152q0 90 35.5 155.5t101 101t154.5 35.5q110 0 179 -52z
" />
    <glyph glyph-name="gbreve.smcp" horiz-adv-x="639" 
d="M501 512q69 -52 79 -141h-177q-6 30 -27 46t-55 16q-53 0 -84 -42t-31 -119q0 -78 30.5 -121t84.5 -43q46 0 72 23.5t28 64.5h-110v118h267v-314h-143v46h-2q-52 -59 -153 -59q-76 0 -132.5 34.5t-86.5 98.5t-30 152q0 90 35.5 155.5t101 101t154.5 35.5q110 0 179 -52z
M443.5 638.5q-46.5 -40.5 -127.5 -40.5t-127.5 40.5t-50.5 113.5h106q2 -28 20.5 -43t51.5 -15t51.5 15t20.5 43h106q-4 -73 -50.5 -113.5z" />
    <glyph glyph-name="gcircumflex.smcp" horiz-adv-x="639" 
d="M501 512q69 -52 79 -141h-177q-6 30 -27 46t-55 16q-53 0 -84 -42t-31 -119q0 -78 30.5 -121t84.5 -43q46 0 72 23.5t28 64.5h-110v118h267v-314h-143v46h-2q-52 -59 -153 -59q-76 0 -132.5 34.5t-86.5 98.5t-30 152q0 90 35.5 155.5t101 101t154.5 35.5q110 0 179 -52z
M315 680l-58 -76h-138l118 148h156l118 -148h-138z" />
    <glyph glyph-name="gcommaaccent.smcp" horiz-adv-x="639" 
d="M501 512q69 -52 79 -141h-177q-6 30 -27 46t-55 16q-53 0 -84 -42t-31 -119q0 -78 30.5 -121t84.5 -43q46 0 72 23.5t28 64.5h-110v118h267v-314h-143v46h-2q-52 -59 -153 -59q-76 0 -132.5 34.5t-86.5 98.5t-30 152q0 90 35.5 155.5t101 101t154.5 35.5q110 0 179 -52z
M311 -275h-63l46 109h-46v112h134v-112z" />
    <glyph glyph-name="gdotaccent.smcp" horiz-adv-x="639" 
d="M501 512q69 -52 79 -141h-177q-6 30 -27 46t-55 16q-53 0 -84 -42t-31 -119q0 -78 30.5 -121t84.5 -43q46 0 72 23.5t28 64.5h-110v118h267v-314h-143v46h-2q-52 -59 -153 -59q-76 0 -132.5 34.5t-86.5 98.5t-30 152q0 90 35.5 155.5t101 101t154.5 35.5q110 0 179 -52z
M233 621v131h166v-131h-166z" />
    <glyph glyph-name="h.smcp" horiz-adv-x="663" 
d="M425 0v212h-187v-212h-170v548h170v-196h187v196h170v-548h-170z" />
    <glyph glyph-name="hbar.smcp" horiz-adv-x="663" 
d="M595 431v-431h-170v212h-187v-212h-170v431h-41v68h41v49h170v-49h187v49h170v-49h41v-68h-41zM238 431v-79h187v79h-187z" />
    <glyph glyph-name="uni0125.smcp" horiz-adv-x="663" 
d="M425 0v212h-187v-212h-170v548h170v-196h187v196h170v-548h-170zM331 680l-58 -76h-138l118 148h156l118 -148h-138z" />
    <glyph glyph-name="i.smcp" horiz-adv-x="306" 
d="M68 0v548h170v-548h-170z" />
    <glyph glyph-name="iacute.smcp" horiz-adv-x="306" 
d="M68 0v548h170v-548h-170zM57 604l78 148h191l-141 -148h-128z" />
    <glyph glyph-name="ibreve.smcp" horiz-adv-x="306" 
d="M68 0v548h170v-548h-170zM270 638.5q-42 -40.5 -117 -40.5t-117 40t-45 114h100q5 -60 62 -60t62 60h100q-3 -73 -45 -113.5z" />
    <glyph glyph-name="icircumflex.smcp" horiz-adv-x="306" 
d="M68 0v548h170v-548h-170zM204 606l-51 71l-50 -71h-131l108 146h146l108 -146h-130z" />
    <glyph glyph-name="idieresis.smcp" horiz-adv-x="306" 
d="M68 0v548h170v-548h-170zM-4 621v131h133v-131h-133zM177 621v131h132v-131h-132z" />
    <glyph glyph-name="i.loclTRK.smcp" horiz-adv-x="306" 
d="M68 0v548h170v-548h-170zM70 621v131h166v-131h-166z" />
    <glyph glyph-name="igrave.smcp" horiz-adv-x="306" 
d="M68 0v548h170v-548h-170zM249 604h-128l-141 148h191z" />
    <glyph glyph-name="ij.smcp" horiz-adv-x="669" 
d="M68 0v548h170v-548h-170zM554.5 42q-51.5 -49 -161.5 -49q-41 0 -73 8l-1 136q18 -3 36 -3q46 0 64 22.5t18 84.5v307h169v-351q0 -106 -51.5 -155z" />
    <glyph glyph-name="imacron.smcp" horiz-adv-x="306" 
d="M68 0v548h170v-548h-170zM3 632v103h300v-103h-300z" />
    <glyph glyph-name="iogonek.smcp" horiz-adv-x="306" 
d="M68 0v548h170v-548h-170zM187.5 -42q-14.5 -18 -14.5 -37q0 -30 33 -30q18 0 35 7v-82q-42 -15 -93 -15q-61 0 -92 24t-31 67q0 32 20.5 57.5t63.5 50.5h129q-36 -24 -50.5 -42z" />
    <glyph glyph-name="itilde.smcp" horiz-adv-x="306" 
d="M68 0v548h170v-548h-170zM293 646q-29 -38 -82 -38q-21 0 -36.5 6.5t-35.5 19.5q-15 10 -24.5 14.5t-20.5 4.5q-33 0 -36 -45h-77q3 68 32 106t81 38q21 0 36.5 -6.5t35.5 -19.5q14 -10 24 -14.5t21 -4.5q17 0 26 11t11 34h78q-4 -68 -33 -106z" />
    <glyph glyph-name="j.smcp" horiz-adv-x="364" 
d="M248.5 42q-51.5 -49 -161.5 -49q-41 0 -73 8l-1 136q18 -3 36 -3q46 0 64 22.5t18 84.5v307h169v-351q0 -106 -51.5 -155z" />
    <glyph glyph-name="jcircumflex.smcp" horiz-adv-x="364" 
d="M248.5 42q-51.5 -49 -161.5 -49q-41 0 -73 8l-1 136q18 -3 36 -3q46 0 64 22.5t18 84.5v307h169v-351q0 -106 -51.5 -155zM263 606l-51 71l-50 -71h-131l108 146h146l108 -146h-130z" />
    <glyph glyph-name="k.smcp" 
d="M604 0h-210l-154 245h-2v-245h-170v548h170v-230h2l149 230h202l-197 -258z" />
    <glyph glyph-name="kcommaaccent.smcp" 
d="M604 0h-210l-154 245h-2v-245h-170v548h170v-230h2l149 230h202l-197 -258zM303 -275h-63l46 109h-46v112h134v-112z" />
    <glyph glyph-name="l.smcp" horiz-adv-x="499" 
d="M490 141v-141h-422v548h170v-407h252z" />
    <glyph glyph-name="lacute.smcp" horiz-adv-x="499" 
d="M490 141v-141h-422v548h170v-407h252zM88 604l78 148h191l-141 -148h-128z" />
    <glyph glyph-name="lcaron.smcp" horiz-adv-x="499" 
d="M490 141v-141h-422v548h170v-407h252zM273 370l24 178h130l-60 -178h-94z" />
    <glyph glyph-name="lcommaaccent.smcp" horiz-adv-x="499" 
d="M490 141v-141h-422v548h170v-407h252zM263 -275h-63l46 109h-46v112h134v-112z" />
    <glyph glyph-name="ldot.smcp" horiz-adv-x="562" 
d="M490 141v-141h-422v548h170v-407h252zM353 277v170h163v-170h-163z" />
    <glyph glyph-name="j.acute.loclNLD.smcp" horiz-adv-x="364" 
d="M248.5 42q-51.5 -49 -161.5 -49q-41 0 -73 8l-1 136q18 -3 36 -3q46 0 64 22.5t18 84.5v307h169v-351q0 -106 -51.5 -155zM117 604l78 148h191l-141 -148h-128z" />
    <glyph glyph-name="lslash.smcp" horiz-adv-x="501" 
d="M492 0h-421v213l-61 -34v112l61 34v223h169v-137l103 57v-112l-103 -57v-158h252v-141z" />
    <glyph glyph-name="m.smcp" horiz-adv-x="900" 
d="M672 0v261q0 89 5 199h-2q-23 -108 -48 -196l-73 -264h-207l-73 264q-21 75 -49 196h-2q6 -99 6 -199v-261h-161v548h274l63 -232q31 -115 44 -200h2q16 97 44 200l64 232h273v-548h-160z" />
    <glyph glyph-name="n.smcp" horiz-adv-x="717" 
d="M397 0l-89 208q-44 100 -82 209h-2q7 -102 7 -220v-197h-163v548h253l89 -208q45 -106 81 -209h2q-6 88 -6 220v197h162v-548h-252z" />
    <glyph glyph-name="nacute.smcp" horiz-adv-x="717" 
d="M397 0l-89 208q-44 100 -82 209h-2q7 -102 7 -220v-197h-163v548h253l89 -208q45 -106 81 -209h2q-6 88 -6 220v197h162v-548h-252zM263 604l78 148h191l-141 -148h-128z" />
    <glyph glyph-name="ncaron.smcp" horiz-adv-x="717" 
d="M397 0l-89 208q-44 100 -82 209h-2q7 -102 7 -220v-197h-163v548h253l89 -208q45 -106 81 -209h2q-6 88 -6 220v197h162v-548h-252zM281 604l-118 148h138l58 -76l58 76h138l-118 -148h-156z" />
    <glyph glyph-name="ncommaaccent.smcp" horiz-adv-x="717" 
d="M397 0l-89 208q-44 100 -82 209h-2q7 -102 7 -220v-197h-163v548h253l89 -208q45 -106 81 -209h2q-6 88 -6 220v197h162v-548h-252zM355 -275h-63l46 109h-46v112h134v-112z" />
    <glyph glyph-name="eng.smcp" horiz-adv-x="665" 
d="M550.5 -127.5q-46.5 -39.5 -124.5 -39.5q-45 0 -75 9v108q9 -3 24 -3q51 0 51 45q0 12 -7 27t-30 55l-84 145q-48 82 -80 158h-2q8 -98 8 -183v-194h-163v548h207l84 -145q46 -81 82 -159h2q-8 83 -8 183v121h162v-555q0 -81 -46.5 -120.5z" />
    <glyph glyph-name="ntilde.smcp" horiz-adv-x="717" 
d="M397 0l-89 208q-44 100 -82 209h-2q7 -102 7 -220v-197h-163v548h253l89 -208q45 -106 81 -209h2q-6 88 -6 220v197h162v-548h-252zM518 647q-32 -38 -89 -38q-23 0 -41.5 6.5t-41.5 18.5q-31 18 -51 18q-37 0 -42 -43h-89q3 67 35 105t89 38q23 0 39.5 -6t44.5 -19
q31 -18 50 -18q20 0 30 10.5t13 32.5h89q-4 -67 -36 -105z" />
    <glyph glyph-name="o.smcp" horiz-adv-x="632" 
d="M467.5 528.5q64.5 -35.5 99 -101t34.5 -153.5t-34.5 -153.5t-99 -101t-151.5 -35.5t-151.5 35.5t-99 101t-34.5 153.5t34.5 153.5t99 101t151.5 35.5t151.5 -35.5zM234.5 387q-28.5 -39 -28.5 -113t28.5 -113t81.5 -39t81.5 39t28.5 113t-28.5 113t-81.5 39t-81.5 -39z
" />
    <glyph glyph-name="oacute.smcp" horiz-adv-x="632" 
d="M467.5 528.5q64.5 -35.5 99 -101t34.5 -153.5t-34.5 -153.5t-99 -101t-151.5 -35.5t-151.5 35.5t-99 101t-34.5 153.5t34.5 153.5t99 101t151.5 35.5t151.5 -35.5zM234.5 387q-28.5 -39 -28.5 -113t28.5 -113t81.5 -39t81.5 39t28.5 113t-28.5 113t-81.5 39t-81.5 -39z
M220 604l78 148h191l-141 -148h-128z" />
    <glyph glyph-name="obreve.smcp" horiz-adv-x="632" 
d="M467.5 528.5q64.5 -35.5 99 -101t34.5 -153.5t-34.5 -153.5t-99 -101t-151.5 -35.5t-151.5 35.5t-99 101t-34.5 153.5t34.5 153.5t99 101t151.5 35.5t151.5 -35.5zM234.5 387q-28.5 -39 -28.5 -113t28.5 -113t81.5 -39t81.5 39t28.5 113t-28.5 113t-81.5 39t-81.5 -39z
M443.5 638.5q-46.5 -40.5 -127.5 -40.5t-127.5 40.5t-50.5 113.5h106q2 -28 20.5 -43t51.5 -15t51.5 15t20.5 43h106q-4 -73 -50.5 -113.5z" />
    <glyph glyph-name="ocircumflex.smcp" horiz-adv-x="632" 
d="M467.5 528.5q64.5 -35.5 99 -101t34.5 -153.5t-34.5 -153.5t-99 -101t-151.5 -35.5t-151.5 35.5t-99 101t-34.5 153.5t34.5 153.5t99 101t151.5 35.5t151.5 -35.5zM234.5 387q-28.5 -39 -28.5 -113t28.5 -113t81.5 -39t81.5 39t28.5 113t-28.5 113t-81.5 39t-81.5 -39z
M316 680l-58 -76h-138l118 148h156l118 -148h-138z" />
    <glyph glyph-name="odieresis.smcp" horiz-adv-x="632" 
d="M467.5 528.5q64.5 -35.5 99 -101t34.5 -153.5t-34.5 -153.5t-99 -101t-151.5 -35.5t-151.5 35.5t-99 101t-34.5 153.5t34.5 153.5t99 101t151.5 35.5t151.5 -35.5zM234.5 387q-28.5 -39 -28.5 -113t28.5 -113t81.5 -39t81.5 39t28.5 113t-28.5 113t-81.5 39t-81.5 -39z
M131 621v131h143v-131h-143zM358 621v131h142v-131h-142z" />
    <glyph glyph-name="ograve.smcp" horiz-adv-x="632" 
d="M467.5 528.5q64.5 -35.5 99 -101t34.5 -153.5t-34.5 -153.5t-99 -101t-151.5 -35.5t-151.5 35.5t-99 101t-34.5 153.5t34.5 153.5t99 101t151.5 35.5t151.5 -35.5zM234.5 387q-28.5 -39 -28.5 -113t28.5 -113t81.5 -39t81.5 39t28.5 113t-28.5 113t-81.5 39t-81.5 -39z
M412 604h-128l-141 148h191z" />
    <glyph glyph-name="ohungarumlaut.smcp" horiz-adv-x="632" 
d="M467.5 528.5q64.5 -35.5 99 -101t34.5 -153.5t-34.5 -153.5t-99 -101t-151.5 -35.5t-151.5 35.5t-99 101t-34.5 153.5t34.5 153.5t99 101t151.5 35.5t151.5 -35.5zM234.5 387q-28.5 -39 -28.5 -113t28.5 -113t81.5 -39t81.5 39t28.5 113t-28.5 113t-81.5 39t-81.5 -39z
M126 604l98 148h166l-141 -148h-123zM331 604l99 148h166l-141 -148h-124z" />
    <glyph glyph-name="omacron.smcp" horiz-adv-x="632" 
d="M467.5 528.5q64.5 -35.5 99 -101t34.5 -153.5t-34.5 -153.5t-99 -101t-151.5 -35.5t-151.5 35.5t-99 101t-34.5 153.5t34.5 153.5t99 101t151.5 35.5t151.5 -35.5zM234.5 387q-28.5 -39 -28.5 -113t28.5 -113t81.5 -39t81.5 39t28.5 113t-28.5 113t-81.5 39t-81.5 -39z
M136 629v103h359v-103h-359z" />
    <glyph glyph-name="oslash.smcp" horiz-adv-x="634" 
d="M603 274q0 -88 -35 -153.5t-99.5 -101t-151.5 -35.5q-86 0 -147 33l-49 -63l-64 49l48 62q-36 38 -55 91t-19 118q0 88 35 153.5t99.5 101t151.5 35.5q82 0 148 -33l47 61l64 -49l-47 -60q74 -79 74 -209zM226.5 391.5q-31.5 -41.5 -31.5 -117.5q0 -48 12 -81l174 223
q-28 17 -64 17q-59 0 -90.5 -41.5zM407.5 156q31.5 41 31.5 118q0 48 -12 81l-174 -223q28 -17 64 -17q59 0 90.5 41z" />
    <glyph glyph-name="otilde.smcp" horiz-adv-x="632" 
d="M467.5 528.5q64.5 -35.5 99 -101t34.5 -153.5t-34.5 -153.5t-99 -101t-151.5 -35.5t-151.5 35.5t-99 101t-34.5 153.5t34.5 153.5t99 101t151.5 35.5t151.5 -35.5zM234.5 387q-28.5 -39 -28.5 -113t28.5 -113t81.5 -39t81.5 39t28.5 113t-28.5 113t-81.5 39t-81.5 -39z
M475 647q-32 -38 -89 -38q-23 0 -41.5 6.5t-41.5 18.5q-31 18 -51 18q-37 0 -42 -43h-89q3 67 35 105t89 38q23 0 39.5 -6t44.5 -19q31 -18 50 -18q20 0 30 10.5t13 32.5h89q-4 -67 -36 -105z" />
    <glyph glyph-name="oe.smcp" horiz-adv-x="845" 
d="M538 418v-79h240v-126h-240v-83h264v-130h-457q-148 0 -231 72.5t-83 201.5t83 201.5t231 72.5h453v-130h-260zM242.5 380q-36.5 -38 -36.5 -106t36.5 -106t105.5 -38h33v288h-33q-69 0 -105.5 -38z" />
    <glyph glyph-name="p.smcp" horiz-adv-x="578" 
d="M499 496.5q58 -51.5 58 -142.5t-58 -142t-170 -51h-91v-161h-170v548h261q112 0 170 -51.5zM238 286h60q85 0 85 68t-86 68h-59v-136z" />
    <glyph glyph-name="thorn.smcp" horiz-adv-x="578" 
d="M329 474q112 0 170 -52t58 -143q0 -90 -58 -141.5t-170 -51.5h-91v-86h-170v548h170v-74h91zM238 212h60q85 0 85 68t-86 68h-59v-136z" />
    <glyph glyph-name="q.smcp" horiz-adv-x="632" 
d="M535 74l61 -65l-81 -76l-71 75q-55 -24 -128 -24q-87 0 -151.5 35.5t-99 101t-34.5 153.5t34.5 153.5t99 101t151.5 35.5t151.5 -35.5t99 -101t34.5 -153.5q0 -123 -66 -200zM234.5 155.5q29.5 -40.5 84.5 -40.5q14 0 28 3l-65 68l76 71l64 -69q13 33 13 83
q0 75 -29.5 115t-85.5 40t-85.5 -40t-29.5 -115t29.5 -115.5z" />
    <glyph glyph-name="r.smcp" horiz-adv-x="598" 
d="M550 390q0 -49 -27.5 -84t-77.5 -50v-2q31 -11 49.5 -35t39.5 -78l54 -141h-181l-40 116q-14 40 -33.5 56t-56.5 16h-39v-188h-170v548h268q214 0 214 -158zM238 303h66q79 0 79 64q0 62 -83 62h-62v-126z" />
    <glyph glyph-name="racute.smcp" horiz-adv-x="598" 
d="M550 390q0 -49 -27.5 -84t-77.5 -50v-2q31 -11 49.5 -35t39.5 -78l54 -141h-181l-40 116q-14 40 -33.5 56t-56.5 16h-39v-188h-170v548h268q214 0 214 -158zM238 303h66q79 0 79 64q0 62 -83 62h-62v-126zM201 604l78 148h191l-141 -148h-128z" />
    <glyph glyph-name="rcaron.smcp" horiz-adv-x="598" 
d="M550 390q0 -49 -27.5 -84t-77.5 -50v-2q31 -11 49.5 -35t39.5 -78l54 -141h-181l-40 116q-14 40 -33.5 56t-56.5 16h-39v-188h-170v548h268q214 0 214 -158zM238 303h66q79 0 79 64q0 62 -83 62h-62v-126zM218 604l-118 148h138l58 -76l58 76h138l-118 -148h-156z" />
    <glyph glyph-name="rcommaaccent.smcp" horiz-adv-x="598" 
d="M550 390q0 -49 -27.5 -84t-77.5 -50v-2q31 -11 49.5 -35t39.5 -78l54 -141h-181l-40 116q-14 40 -33.5 56t-56.5 16h-39v-188h-170v548h268q214 0 214 -158zM238 303h66q79 0 79 64q0 62 -83 62h-62v-126zM308 -275h-63l46 109h-46v112h134v-112z" />
    <glyph glyph-name="s.smcp" horiz-adv-x="543" 
d="M440.5 517.5q60.5 -46.5 60.5 -135.5h-164q0 66 -77 66q-31 0 -49 -12t-18 -33q0 -16 10 -25.5t31.5 -16.5t66.5 -17q69 -16 113 -34t72 -52.5t28 -91.5q0 -85 -65.5 -133.5t-178.5 -48.5q-117 0 -182.5 51t-65.5 143h167q0 -75 86 -75q35 0 55 14t20 37q0 24 -20.5 34.5
t-83.5 26.5q-71 17 -114 34t-71.5 50.5t-28.5 88.5q0 80 63 128t173 48q112 0 172.5 -46.5z" />
    <glyph glyph-name="sacute.smcp" horiz-adv-x="543" 
d="M440.5 517.5q60.5 -46.5 60.5 -135.5h-164q0 66 -77 66q-31 0 -49 -12t-18 -33q0 -16 10 -25.5t31.5 -16.5t66.5 -17q69 -16 113 -34t72 -52.5t28 -91.5q0 -85 -65.5 -133.5t-178.5 -48.5q-117 0 -182.5 51t-65.5 143h167q0 -75 86 -75q35 0 55 14t20 37q0 24 -20.5 34.5
t-83.5 26.5q-71 17 -114 34t-71.5 50.5t-28.5 88.5q0 80 63 128t173 48q112 0 172.5 -46.5zM172 604l78 148h191l-141 -148h-128z" />
    <glyph glyph-name="scaron.smcp" horiz-adv-x="543" 
d="M440.5 517.5q60.5 -46.5 60.5 -135.5h-164q0 66 -77 66q-31 0 -49 -12t-18 -33q0 -16 10 -25.5t31.5 -16.5t66.5 -17q69 -16 113 -34t72 -52.5t28 -91.5q0 -85 -65.5 -133.5t-178.5 -48.5q-117 0 -182.5 51t-65.5 143h167q0 -75 86 -75q35 0 55 14t20 37q0 24 -20.5 34.5
t-83.5 26.5q-71 17 -114 34t-71.5 50.5t-28.5 88.5q0 80 63 128t173 48q112 0 172.5 -46.5zM189 604l-118 148h138l58 -76l58 76h138l-118 -148h-156z" />
    <glyph glyph-name="scedilla.smcp" horiz-adv-x="543" 
d="M457.5 39.5q-56.5 -47.5 -155.5 -54.5l-28 -45q15 5 33 5q39 0 63 -21t24 -57q0 -43 -33.5 -71t-94.5 -28q-65 0 -120 32l26 53q44 -22 81 -22q21 0 32.5 8t11.5 23t-11.5 24t-32.5 9q-17 0 -31 -6l-29 27l42 69q-102 8 -157.5 58t-55.5 135h167q0 -75 86 -75q35 0 55 14
t20 37q0 24 -20.5 34.5t-83.5 26.5q-71 17 -114 34t-71.5 50.5t-28.5 88.5q0 80 63 128t173 48q112 0 172.5 -46.5t60.5 -135.5h-164q0 66 -77 66q-31 0 -49 -12t-18 -33q0 -16 10 -25.5t31.5 -16.5t66.5 -17q69 -16 113 -34t72 -52.5t28 -91.5q0 -79 -56.5 -126.5z" />
    <glyph glyph-name="scircumflex.smcp" horiz-adv-x="543" 
d="M440.5 517.5q60.5 -46.5 60.5 -135.5h-164q0 66 -77 66q-31 0 -49 -12t-18 -33q0 -16 10 -25.5t31.5 -16.5t66.5 -17q69 -16 113 -34t72 -52.5t28 -91.5q0 -85 -65.5 -133.5t-178.5 -48.5q-117 0 -182.5 51t-65.5 143h167q0 -75 86 -75q35 0 55 14t20 37q0 24 -20.5 34.5
t-83.5 26.5q-71 17 -114 34t-71.5 50.5t-28.5 88.5q0 80 63 128t173 48q112 0 172.5 -46.5zM267 680l-58 -76h-138l118 148h156l118 -148h-138z" />
    <glyph glyph-name="scommaaccent.smcp" horiz-adv-x="543" 
d="M440.5 517.5q60.5 -46.5 60.5 -135.5h-164q0 66 -77 66q-31 0 -49 -12t-18 -33q0 -16 10 -25.5t31.5 -16.5t66.5 -17q69 -16 113 -34t72 -52.5t28 -91.5q0 -85 -65.5 -133.5t-178.5 -48.5q-117 0 -182.5 51t-65.5 143h167q0 -75 86 -75q35 0 55 14t20 37q0 24 -20.5 34.5
t-83.5 26.5q-71 17 -114 34t-71.5 50.5t-28.5 88.5q0 80 63 128t173 48q112 0 172.5 -46.5zM266 -275h-63l46 109h-46v112h134v-112z" />
    <glyph glyph-name="germandbls.smcp" horiz-adv-x="704" 
d="M668 152q0 -80 -57 -124t-155 -44q-96 0 -146.5 44t-50.5 132h144q0 -51 50 -51q49 0 49 46q0 37 -37.5 56t-111.5 24v101l76 80q-28 19 -71 19q-63 0 -96 -34.5t-33 -102.5v-298h-165v302q0 129 76 195.5t221 66.5q84 0 154 -31.5t115 -85.5l-110 -119q148 -47 148 -176
z" />
    <glyph glyph-name="t.smcp" horiz-adv-x="524" 
d="M347 408v-408h-170v408h-168v140h506v-140h-168z" />
    <glyph glyph-name="tbar.smcp" horiz-adv-x="524" 
d="M347 298h93v-98h-93v-200h-170v200h-93v98h93v110h-168v140h506v-140h-168v-110z" />
    <glyph glyph-name="tcaron.smcp" horiz-adv-x="524" 
d="M347 408v-408h-170v408h-168v140h506v-140h-168zM184 604l-118 148h138l58 -76l58 76h138l-118 -148h-156z" />
    <glyph glyph-name="uni0163.smcp" horiz-adv-x="524" 
d="M347 408v-408h-170v408h-168v140h506v-140h-168zM258 -275h-63l46 109h-46v112h134v-112z" />
    <glyph glyph-name="uni021B.smcp" horiz-adv-x="524" 
d="M347 408v-408h-170v408h-168v140h506v-140h-168zM258 -275h-63l46 109h-46v112h134v-112z" />
    <glyph glyph-name="u.smcp" horiz-adv-x="628" 
d="M500.5 45q-65.5 -61 -186.5 -61t-186.5 61t-65.5 173v330h170v-327q0 -44 21 -67.5t61 -23.5t61 23.5t21 67.5v327h170v-330q0 -112 -65.5 -173z" />
    <glyph glyph-name="uacute.smcp" horiz-adv-x="628" 
d="M500.5 45q-65.5 -61 -186.5 -61t-186.5 61t-65.5 173v330h170v-327q0 -44 21 -67.5t61 -23.5t61 23.5t21 67.5v327h170v-330q0 -112 -65.5 -173zM218 604l78 148h191l-141 -148h-128z" />
    <glyph glyph-name="ubreve.smcp" horiz-adv-x="628" 
d="M500.5 45q-65.5 -61 -186.5 -61t-186.5 61t-65.5 173v330h170v-327q0 -44 21 -67.5t61 -23.5t61 23.5t21 67.5v327h170v-330q0 -112 -65.5 -173zM441.5 638.5q-46.5 -40.5 -127.5 -40.5t-127.5 40.5t-50.5 113.5h106q2 -28 20.5 -43t51.5 -15t51.5 15t20.5 43h106
q-4 -73 -50.5 -113.5z" />
    <glyph glyph-name="ucircumflex.smcp" horiz-adv-x="628" 
d="M500.5 45q-65.5 -61 -186.5 -61t-186.5 61t-65.5 173v330h170v-327q0 -44 21 -67.5t61 -23.5t61 23.5t21 67.5v327h170v-330q0 -112 -65.5 -173zM314 680l-58 -76h-138l118 148h156l118 -148h-138z" />
    <glyph glyph-name="udieresis.smcp" horiz-adv-x="628" 
d="M500.5 45q-65.5 -61 -186.5 -61t-186.5 61t-65.5 173v330h170v-327q0 -44 21 -67.5t61 -23.5t61 23.5t21 67.5v327h170v-330q0 -112 -65.5 -173zM129 621v131h143v-131h-143zM356 621v131h142v-131h-142z" />
    <glyph glyph-name="ugrave.smcp" horiz-adv-x="628" 
d="M500.5 45q-65.5 -61 -186.5 -61t-186.5 61t-65.5 173v330h170v-327q0 -44 21 -67.5t61 -23.5t61 23.5t21 67.5v327h170v-330q0 -112 -65.5 -173zM410 604h-128l-141 148h191z" />
    <glyph glyph-name="uhungarumlaut.smcp" horiz-adv-x="628" 
d="M500.5 45q-65.5 -61 -186.5 -61t-186.5 61t-65.5 173v330h170v-327q0 -44 21 -67.5t61 -23.5t61 23.5t21 67.5v327h170v-330q0 -112 -65.5 -173zM124 604l98 148h166l-141 -148h-123zM329 604l99 148h166l-141 -148h-124z" />
    <glyph glyph-name="umacron.smcp" horiz-adv-x="628" 
d="M500.5 45q-65.5 -61 -186.5 -61t-186.5 61t-65.5 173v330h170v-327q0 -44 21 -67.5t61 -23.5t61 23.5t21 67.5v327h170v-330q0 -112 -65.5 -173zM134 629v103h359v-103h-359z" />
    <glyph glyph-name="uogonek.smcp" horiz-adv-x="629" 
d="M545 107q-21 -49 -64 -91q-31 -31 -43.5 -52.5t-12.5 -41.5q0 -31 34 -31q18 0 35 7v-82q-42 -15 -93 -15q-60 0 -91 23.5t-31 66.5q0 29 16 51.5t50 45.5v2q-9 -2 -30 -2q-121 0 -186.5 60.5t-65.5 172.5v327h169v-324q0 -44 21.5 -67.5t61.5 -23.5t61 23.5t21 67.5v324
h169v-327q0 -65 -21 -114z" />
    <glyph glyph-name="uring.smcp" horiz-adv-x="628" 
d="M500.5 45q-65.5 -61 -186.5 -61t-186.5 61t-65.5 173v330h170v-327q0 -44 21 -67.5t61 -23.5t61 23.5t21 67.5v327h170v-330q0 -112 -65.5 -173zM394.5 786.5q33.5 -33.5 33.5 -80.5t-33.5 -80t-80.5 -33t-80.5 33t-33.5 80t33.5 80.5t80.5 33.5t80.5 -33.5zM274.5 745.5
q-16.5 -16.5 -16.5 -39.5t16.5 -39.5t39.5 -16.5t39.5 16.5t16.5 39.5t-16.5 39.5t-39.5 16.5t-39.5 -16.5z" />
    <glyph glyph-name="utilde.smcp" horiz-adv-x="628" 
d="M500.5 45q-65.5 -61 -186.5 -61t-186.5 61t-65.5 173v330h170v-327q0 -44 21 -67.5t61 -23.5t61 23.5t21 67.5v327h170v-330q0 -112 -65.5 -173zM473 647q-32 -38 -89 -38q-23 0 -41.5 6.5t-41.5 18.5q-31 18 -51 18q-37 0 -42 -43h-89q3 67 35 105t89 38q23 0 39.5 -6
t44.5 -19q31 -18 50 -18q20 0 30 10.5t13 32.5h89q-4 -67 -36 -105z" />
    <glyph glyph-name="v.smcp" horiz-adv-x="575" 
d="M171 0l-167 548h179l56 -207q31 -110 48 -205h2q17 104 47 205l56 207h179l-167 -548h-233z" />
    <glyph glyph-name="w.smcp" horiz-adv-x="868" 
d="M516 0l-45 219q-21 103 -36 205h-2q-11 -82 -36 -205l-44 -219h-233l-112 548h165l35 -192q19 -103 33 -220h2q14 95 40 220l42 192h219l42 -192q19 -93 40 -220h2q10 95 33 220l35 192h165l-112 -548h-233z" />
    <glyph glyph-name="wacute.smcp" horiz-adv-x="868" 
d="M516 0l-45 219q-21 103 -36 205h-2q-11 -82 -36 -205l-44 -219h-233l-112 548h165l35 -192q19 -103 33 -220h2q14 95 40 220l42 192h219l42 -192q19 -93 40 -220h2q10 95 33 220l35 192h165l-112 -548h-233zM339 604l78 148h191l-141 -148h-128z" />
    <glyph glyph-name="wcircumflex.smcp" horiz-adv-x="868" 
d="M516 0l-45 219q-21 103 -36 205h-2q-11 -82 -36 -205l-44 -219h-233l-112 548h165l35 -192q19 -103 33 -220h2q14 95 40 220l42 192h219l42 -192q19 -93 40 -220h2q10 95 33 220l35 192h165l-112 -548h-233zM434 680l-58 -76h-138l118 148h156l118 -148h-138z" />
    <glyph glyph-name="wdieresis.smcp" horiz-adv-x="868" 
d="M516 0l-45 219q-21 103 -36 205h-2q-11 -82 -36 -205l-44 -219h-233l-112 548h165l35 -192q19 -103 33 -220h2q14 95 40 220l42 192h219l42 -192q19 -93 40 -220h2q10 95 33 220l35 192h165l-112 -548h-233zM250 621v131h143v-131h-143zM477 621v131h142v-131h-142z" />
    <glyph glyph-name="wgrave.smcp" horiz-adv-x="868" 
d="M516 0l-45 219q-21 103 -36 205h-2q-11 -82 -36 -205l-44 -219h-233l-112 548h165l35 -192q19 -103 33 -220h2q14 95 40 220l42 192h219l42 -192q19 -93 40 -220h2q10 95 33 220l35 192h165l-112 -548h-233zM530 604h-128l-141 148h191z" />
    <glyph glyph-name="x.smcp" horiz-adv-x="568" 
d="M566 0h-191l-90 178h-2l-91 -178h-191l176 284l-165 264h187l84 -171h2l83 171h188l-166 -264z" />
    <glyph glyph-name="y.smcp" horiz-adv-x="558" 
d="M363 0h-169v196l-193 352h186l41 -96q31 -66 50 -133h2q18 64 49 133l42 96h185l-193 -352v-196z" />
    <glyph glyph-name="yacute.smcp" horiz-adv-x="558" 
d="M363 0h-169v196l-193 352h186l41 -96q31 -66 50 -133h2q18 64 49 133l42 96h185l-193 -352v-196zM183 604l78 148h191l-141 -148h-128z" />
    <glyph glyph-name="ycircumflex.smcp" horiz-adv-x="558" 
d="M363 0h-169v196l-193 352h186l41 -96q31 -66 50 -133h2q18 64 49 133l42 96h185l-193 -352v-196zM278 680l-58 -76h-138l118 148h156l118 -148h-138z" />
    <glyph glyph-name="ydieresis.smcp" horiz-adv-x="558" 
d="M363 0h-169v196l-193 352h186l41 -96q31 -66 50 -133h2q18 64 49 133l42 96h185l-193 -352v-196zM94 621v131h143v-131h-143zM321 621v131h142v-131h-142z" />
    <glyph glyph-name="ygrave.smcp" horiz-adv-x="558" 
d="M363 0h-169v196l-193 352h186l41 -96q31 -66 50 -133h2q18 64 49 133l42 96h185l-193 -352v-196zM374 604h-128l-141 148h191z" />
    <glyph glyph-name="z.smcp" horiz-adv-x="494" 
d="M218 140v-2h257v-138h-457v144l245 264v2h-232v138h432v-144z" />
    <glyph glyph-name="zacute.smcp" horiz-adv-x="494" 
d="M218 140v-2h257v-138h-457v144l245 264v2h-232v138h432v-144zM152 604l78 148h191l-141 -148h-128z" />
    <glyph glyph-name="zcaron.smcp" horiz-adv-x="494" 
d="M218 140v-2h257v-138h-457v144l245 264v2h-232v138h432v-144zM169 604l-118 148h138l58 -76l58 76h138l-118 -148h-156z" />
    <glyph glyph-name="zdotaccent.smcp" horiz-adv-x="494" 
d="M218 140v-2h257v-138h-457v144l245 264v2h-232v138h432v-144zM164 621v131h166v-131h-166z" />
    <glyph glyph-name="ccedilla.smcp.ss01" horiz-adv-x="612" 
d="M494 506q71 -58 75 -162h-175q-4 40 -27 61t-61 21q-46 0 -73 -40t-27 -112t27 -112t74 -40q36 0 59.5 22.5t28.5 62.5h177q-9 -108 -79.5 -165.5t-185.5 -57.5q-129 0 -202.5 77t-73.5 213q0 89 33.5 154.5t95.5 100.5t146 35q117 0 188 -58zM118 -217l141 168h133
l-98 -168h-176z" />
    <glyph glyph-name="scedilla.smcp.ss01" horiz-adv-x="543" 
d="M440.5 517.5q60.5 -46.5 60.5 -135.5h-164q0 66 -77 66q-31 0 -49 -12t-18 -33q0 -16 10 -25.5t31.5 -16.5t66.5 -17q69 -16 113 -34t72 -52.5t28 -91.5q0 -85 -65.5 -133.5t-178.5 -48.5q-117 0 -182.5 51t-65.5 143h167q0 -75 86 -75q35 0 55 14t20 37q0 24 -20.5 34.5
t-83.5 26.5q-71 17 -114 34t-71.5 50.5t-28.5 88.5q0 80 63 128t173 48q112 0 172.5 -46.5zM81 -217l141 168h133l-98 -168h-176z" />
    <glyph glyph-name="uni0163.smcp.ss01" horiz-adv-x="524" 
d="M347 408v-408h-170v408h-168v140h506v-140h-168zM73 -217l141 168h133l-98 -168h-176z" />
    <glyph glyph-name="ordfeminine" unicode="&#xaa;" horiz-adv-x="419" 
d="M336 659q43 -38 43 -110v-115q0 -65 12 -104h-122q-6 20 -6 45h-2q-42 -55 -118 -55q-59 0 -93.5 31.5t-34.5 80.5q0 48 35 76t114 40q50 7 84 9v13q0 48 -44 48q-42 0 -44 -45h-130q4 54 47 89t129 35q87 0 130 -38zM191 482q-23 -5 -32.5 -15t-9.5 -26q0 -17 10.5 -27
t29.5 -10q28 0 44 17q9 10 12 22t3 34v12q-27 0 -57 -7z" />
    <glyph glyph-name="ordmasculine" unicode="&#xba;" horiz-adv-x="444" 
d="M368.5 645.5q54.5 -51.5 54.5 -137.5q0 -87 -54.5 -138t-146.5 -51t-146.5 51t-54.5 138q0 86 54.5 137.5t146.5 51.5t146.5 -51.5zM178.5 573q-15.5 -23 -15.5 -65t15.5 -65t43.5 -23t43.5 23t15.5 65t-15.5 65t-43.5 23t-43.5 -23z" />
    <glyph glyph-name="uni0394" unicode="&#x394;" horiz-adv-x="714" 
d="M1 0l245 712h224l243 -712h-712zM428 341q-44 149 -71 259h-2q-27 -110 -71 -259l-60 -200h265z" />
    <glyph glyph-name="uni03A9" unicode="&#x3a9;" horiz-adv-x="747" 
d="M617 649q91 -79 91 -232q0 -82 -34.5 -145.5t-97.5 -123.5v-2h143v-146h-299v152q51 52 79 107.5t28 129.5q0 92 -42 140.5t-112 48.5q-69 0 -111 -48.5t-42 -140.5q0 -74 28 -129.5t79 -107.5v-152h-299v146h143v2q-63 59 -97.5 123t-34.5 146q0 152 91 231.5t243 79.5
q153 0 244 -79z" />
    <glyph glyph-name="uni03BC" unicode="&#x3bc;" horiz-adv-x="626" 
d="M560 130.5q10 -13.5 33 -13.5q12 0 24 3v-115q-42 -14 -98 -14q-96 0 -120 75h-2q-14 -34 -43.5 -53t-66.5 -19q-38 0 -60 16v-195h-166v693h166v-291q0 -101 73 -101q39 0 61.5 31t22.5 94v267h166v-330q0 -34 10 -47.5z" />
    <glyph glyph-name="pi" unicode="&#x3c0;" horiz-adv-x="682" 
d="M573 387v-205q0 -38 12 -52.5t39 -14.5q18 0 27 3v-116q-35 -11 -90 -11q-80 0 -117 38.5t-37 129.5v228h-145v-387h-166v387h-88v121h657v-121h-92z" />
    <glyph glyph-name="zero.lf" horiz-adv-x="645" 
d="M531 598q73 -92 73 -261q0 -170 -73 -261.5t-209 -91.5t-209 91.5t-73 261.5q0 169 73 261t209 92t209 -92zM242.5 499.5q-27.5 -56.5 -27.5 -162.5t27.5 -163.5t79.5 -57.5t80 57.5t28 163.5q0 105 -28 162t-80 57t-79.5 -56.5z" />
    <glyph glyph-name="one.lf" horiz-adv-x="433" 
d="M178 0v435h-163v122q86 0 128.5 27.5t51.5 89.5h154v-674h-171z" />
    <glyph glyph-name="two.lf" horiz-adv-x="629" 
d="M450 665q57 -25 88 -70.5t31 -104.5q0 -57 -21.5 -98t-58.5 -70t-95 -59q-60 -31 -90.5 -52t-41.5 -37.5t-13 -36.5h337v-137h-538q-1 9 -1 31q0 72 17 123.5t59 95.5t118 86q57 32 87 52.5t47.5 44.5t17.5 55q0 32 -20 50.5t-56 18.5q-44 0 -67 -25.5t-23 -74.5h-171
q1 112 70 172.5t191 60.5q76 0 133 -25z" />
    <glyph glyph-name="three.lf" horiz-adv-x="619" 
d="M495.5 638.5q68.5 -51.5 68.5 -139.5q0 -56 -28 -91.5t-89 -57.5v-2q66 -22 96.5 -60.5t30.5 -101.5q0 -61 -32.5 -107t-91.5 -70.5t-138 -24.5q-134 0 -205.5 61.5t-71.5 178.5h173q0 -107 104 -107q41 0 65.5 20.5t24.5 54.5q0 82 -121 82h-20v128h22q52 0 82 22t30 58
q0 35 -24 55t-64 20q-45 0 -69.5 -25.5t-24.5 -75.5h-169q0 110 70 172t196 62q117 0 185.5 -51.5z" />
    <glyph glyph-name="four.lf" horiz-adv-x="623" 
d="M503 140v-140h-168v140h-320v136l265 398h223v-405h104v-129h-104zM341 269v75q0 112 7 210h-2q-51 -92 -117 -191l-64 -94h176z" />
    <glyph glyph-name="five.lf" horiz-adv-x="623" 
d="M229 537l-14 -136h2q53 50 134 50q66 0 117.5 -28t80 -79t28.5 -116q0 -74 -34 -129t-96 -85t-143 -30q-118 0 -188 55.5t-70 151.5h172q1 -36 26 -56.5t62 -20.5q47 0 72 27t25 79q0 51 -25.5 77.5t-69.5 26.5q-35 0 -57.5 -17.5t-29.5 -47.5l-167 11l38 404h447v-137
h-310z" />
    <glyph glyph-name="six.lf" horiz-adv-x="616" 
d="M500 635.5q64 -54.5 71 -150.5h-172q-5 37 -24.5 56.5t-53.5 19.5q-51 0 -82.5 -45.5t-34.5 -140.5h2q59 65 153 65q65 0 115 -27.5t77.5 -77t27.5 -113.5q0 -70 -33 -124t-93 -84t-137 -30q-132 0 -203.5 85.5t-71.5 250.5q0 117 34.5 200t99.5 126.5t155 43.5
q106 0 170 -54.5zM252 290q-25 -29 -25 -76q0 -44 24.5 -71.5t64.5 -27.5q41 0 66 28t25 73q0 47 -24.5 75t-65.5 28q-40 0 -65 -29z" />
    <glyph glyph-name="seven.lf" horiz-adv-x="513" 
d="M371.5 290.5q-53.5 -139.5 -79.5 -290.5h-184q32 161 92.5 302.5t129.5 231.5h-315v140h482v-139q-72 -105 -125.5 -244.5z" />
    <glyph glyph-name="eight.lf" horiz-adv-x="619" 
d="M442 666.5q58 -23.5 90 -66t32 -98.5q0 -55 -33 -95.5t-90 -55.5v-2q63 -15 100.5 -59.5t37.5 -106.5q0 -93 -72.5 -146t-197.5 -53q-124 0 -196.5 53t-72.5 146q0 62 37.5 106.5t100.5 59.5v2q-57 15 -90 55.5t-33 95.5q0 56 32 98.5t89.5 66t132.5 23.5t133 -23.5z
M242 540.5q-25 -20.5 -25 -54.5q0 -36 24.5 -57t67.5 -21t68 21t25 57q0 34 -25 54.5t-68 20.5q-42 0 -67 -20.5zM237.5 259q-26.5 -23 -26.5 -61t26.5 -60.5t71.5 -22.5q46 0 72.5 22.5t26.5 60.5t-26.5 61t-72.5 23q-45 0 -71.5 -23z" />
    <glyph glyph-name="nine.lf" horiz-adv-x="616" 
d="M119.5 38.5q-64.5 54.5 -70.5 151.5h172q4 -37 24 -56.5t54 -19.5q51 0 82 45t34 140h-2q-57 -65 -152 -65q-65 0 -115 27.5t-78 77.5t-28 113q0 70 33.5 124t93.5 84t137 30q132 0 203.5 -85.5t71.5 -250.5q0 -117 -34.5 -200t-99.5 -126.5t-155 -43.5
q-106 0 -170.5 54.5zM367.5 384q24.5 29 24.5 76q0 45 -24 72t-65 27t-65.5 -27.5t-24.5 -72.5q0 -47 24.5 -75.5t65.5 -28.5q40 0 64.5 29z" />
    <glyph glyph-name="fraction" unicode="&#x2044;" horiz-adv-x="149" 
d="M-157 0l363 674h100l-363 -674h-100z" />
    <glyph glyph-name="onehalf" unicode="&#xbd;" horiz-adv-x="849" 
d="M112 270v244h-103v89q51 0 78.5 18t36.5 53h118v-404h-130zM131 0l363 674h100l-363 -674h-100zM766 378.5q45 -35.5 45 -90.5q0 -48 -29 -78.5t-84 -52.5q-53 -22 -70 -34t-19 -27h214v-96h-357q-1 8 -1 25q0 67 26.5 108.5t94.5 75.5q55 26 77 42t22 40q0 15 -11 24
t-30 9q-23 0 -36 -14t-13 -41h-124q0 69 45.5 107t127.5 38q77 0 122 -35.5z" />
    <glyph glyph-name="onequarter" unicode="&#xbc;" horiz-adv-x="824" 
d="M112 270v244h-103v89q51 0 78.5 18t36.5 53h118v-404h-130zM131 0l363 674h100l-363 -674h-100zM744 76v-76h-121v76h-197v94l159 234h159v-236h70v-92h-70zM629 168v37q0 68 4 120h-1q-36 -66 -64 -106l-36 -51h97z" />
    <glyph glyph-name="threequarters" unicode="&#xbe;" horiz-adv-x="942" 
d="M327 652q47 -32 47 -85q0 -32 -17.5 -53t-56.5 -34v-1q41 -13 60 -36t19 -60q0 -58 -45.5 -90.5t-128.5 -32.5q-88 0 -136 37.5t-48 109.5h124q0 -56 60 -56q23 0 37 10.5t14 27.5q0 40 -65 40h-14v87h13q29 0 46 11t17 30q0 17 -14 27t-37 10q-27 0 -41 -14t-14 -39
h-120q0 67 46.5 105t129.5 38q77 0 124 -32zM249 0l363 674h100l-363 -674h-100zM862 76v-76h-121v76h-197v94l159 234h159v-236h70v-92h-70zM747 168v37q0 68 4 120h-1q-36 -66 -64 -106l-36 -51h97z" />
    <glyph glyph-name="oneeighth" unicode="&#x215b;" horiz-adv-x="839" 
d="M112 270v244h-103v89q51 0 78.5 18t36.5 53h118v-404h-130zM131 0l363 674h100l-363 -674h-100zM759.5 382q45.5 -32 45.5 -85q0 -32 -20.5 -55t-57.5 -31v-2q40 -8 64 -34t24 -63q0 -58 -47 -90t-130 -32t-130 32t-47 90q0 37 24 63t65 34v2q-37 8 -58 31t-21 55
q0 53 46 85t121 32q76 0 121.5 -32zM601 317.5q-14 -10.5 -14 -28.5t14 -29t37 -11t37 11t14 29t-14 28.5t-37 10.5t-37 -10.5zM599.5 151.5q-14.5 -11.5 -14.5 -30.5q0 -20 14 -31.5t39 -11.5t39.5 11.5t14.5 31.5q0 19 -15 30.5t-39 11.5t-38.5 -11.5z" />
    <glyph glyph-name="threeeighths" unicode="&#x215c;" horiz-adv-x="957" 
d="M327 652q47 -32 47 -85q0 -32 -17.5 -53t-56.5 -34v-1q41 -13 60 -36t19 -60q0 -58 -45.5 -90.5t-128.5 -32.5q-88 0 -136 37.5t-48 109.5h124q0 -56 60 -56q23 0 37 10.5t14 27.5q0 40 -65 40h-14v87h13q29 0 46 11t17 30q0 17 -14 27t-37 10q-27 0 -41 -14t-14 -39
h-120q0 67 46.5 105t129.5 38q77 0 124 -32zM249 0l363 674h100l-363 -674h-100zM877.5 382q45.5 -32 45.5 -85q0 -32 -20.5 -55t-57.5 -31v-2q40 -8 64 -34t24 -63q0 -58 -47 -90t-130 -32t-130 32t-47 90q0 37 24 63t65 34v2q-37 8 -58 31t-21 55q0 53 46 85t121 32
q76 0 121.5 -32zM719 317.5q-14 -10.5 -14 -28.5t14 -29t37 -11t37 11t14 29t-14 28.5t-37 10.5t-37 -10.5zM717.5 151.5q-14.5 -11.5 -14.5 -30.5q0 -20 14 -31.5t39 -11.5t39.5 11.5t14.5 31.5q0 19 -15 30.5t-39 11.5t-38.5 -11.5z" />
    <glyph glyph-name="fiveeighths" unicode="&#x215d;" horiz-adv-x="958" 
d="M159 577l-7 -64h2q33 27 85 27q62 0 101.5 -37.5t39.5 -97.5q0 -66 -48 -105.5t-128 -39.5t-128 34.5t-48 94.5h126q1 -20 14.5 -31t35.5 -11q25 0 39.5 15.5t14.5 41.5q0 25 -14 39.5t-38 14.5q-21 0 -33.5 -9.5t-16.5 -26.5l-122 7l24 245h295v-97h-194zM250 0l363 674
h100l-363 -674h-100zM878.5 382q45.5 -32 45.5 -85q0 -32 -20.5 -55t-57.5 -31v-2q40 -8 64 -34t24 -63q0 -58 -47 -90t-130 -32t-130 32t-47 90q0 37 24 63t65 34v2q-37 8 -58 31t-21 55q0 53 46 85t121 32q76 0 121.5 -32zM720 317.5q-14 -10.5 -14 -28.5t14 -29t37 -11
t37 11t14 29t-14 28.5t-37 10.5t-37 -10.5zM718.5 151.5q-14.5 -11.5 -14.5 -30.5q0 -20 14 -31.5t39 -11.5t39.5 11.5t14.5 31.5q0 19 -15 30.5t-39 11.5t-38.5 -11.5z" />
    <glyph glyph-name="seveneighths" unicode="&#x215e;" horiz-adv-x="859" 
d="M268 438q-34 -81 -52 -168h-133q20 88 58.5 169.5t84.5 136.5h-217v98h339v-94q-46 -61 -80 -142zM151 0l363 674h100l-363 -674h-100zM779.5 382q45.5 -32 45.5 -85q0 -32 -20.5 -55t-57.5 -31v-2q40 -8 64 -34t24 -63q0 -58 -47 -90t-130 -32t-130 32t-47 90
q0 37 24 63t65 34v2q-37 8 -58 31t-21 55q0 53 46 85t121 32q76 0 121.5 -32zM621 317.5q-14 -10.5 -14 -28.5t14 -29t37 -11t37 11t14 29t-14 28.5t-37 10.5t-37 -10.5zM619.5 151.5q-14.5 -11.5 -14.5 -30.5q0 -20 14 -31.5t39 -11.5t39.5 11.5t14.5 31.5q0 19 -15 30.5
t-39 11.5t-38.5 -11.5z" />
    <glyph glyph-name="zero.denominator" horiz-adv-x="419" 
d="M347 359q48 -55 48 -157t-48 -157t-138 -55q-89 0 -137 55t-48 157t48 157t137 55q90 0 138 -55zM165.5 291q-15.5 -31 -15.5 -89q0 -57 15.5 -88t43.5 -31q30 0 45 30.5t15 88.5t-15 89t-45 31q-28 0 -43.5 -31z" />
    <glyph glyph-name="one.denominator" horiz-adv-x="288" 
d="M112 0v244h-103v89q51 0 78.5 18t36.5 53h118v-404h-130z" />
    <glyph glyph-name="two.denominator" horiz-adv-x="412" 
d="M329 378.5q45 -35.5 45 -90.5q0 -48 -29 -78.5t-84 -52.5q-53 -22 -70 -34t-19 -27h214v-96h-357q-1 8 -1 25q0 67 26.5 108.5t94.5 75.5q55 26 77 42t22 40q0 15 -11 24t-30 9q-23 0 -36 -14t-13 -41h-124q0 69 45.5 107t127.5 38q77 0 122 -35.5z" />
    <glyph glyph-name="three.denominator" horiz-adv-x="406" 
d="M327 382q47 -32 47 -85q0 -32 -17.5 -53t-56.5 -34v-1q41 -13 60 -36t19 -60q0 -59 -45.5 -91t-128.5 -32q-88 0 -136 38t-48 109h125q0 -56 59 -56q23 0 37.5 10.5t14.5 27.5q0 20 -17 30t-49 10h-14v87h13q30 0 46.5 10.5t16.5 30.5q0 17 -13.5 27t-37.5 10
q-26 0 -40 -14t-14 -39h-121q0 67 47 105t129 38q77 0 124 -32z" />
    <glyph glyph-name="four.denominator" horiz-adv-x="407" 
d="M327 76v-76h-121v76h-197v94l159 234h159v-236h70v-92h-70zM212 168v37q0 68 4 120h-1q-36 -66 -64 -106l-36 -51h97z" />
    <glyph glyph-name="five.denominator" horiz-adv-x="407" 
d="M158 307l-7 -64h2q33 27 85 27q62 0 102 -37.5t40 -97.5q0 -66 -48.5 -105.5t-128.5 -39.5t-128 34.5t-48 94.5h126q1 -20 14.5 -31t35.5 -11q26 0 40 15t14 42q0 25 -14 39.5t-38 14.5q-21 0 -33.5 -9.5t-16.5 -26.5l-121 7l23 245h296v-97h-195z" />
    <glyph glyph-name="six.denominator" horiz-adv-x="401" 
d="M326.5 380q43.5 -34 47.5 -95h-124q-2 20 -13.5 31.5t-30.5 11.5q-59 0 -62 -102h2q37 35 94 35q61 0 100 -36t39 -93q0 -63 -48 -102.5t-123 -39.5q-88 0 -136 52.5t-48 152.5q0 103 50 161t138 58q71 0 114.5 -34zM172.5 165q-13.5 -14 -13.5 -36t13.5 -35.5
t35.5 -13.5t35 13t13 35q0 23 -13 37t-35 14t-35.5 -14z" />
    <glyph glyph-name="seven.denominator" horiz-adv-x="358" 
d="M268 168q-34 -81 -52 -168h-133q20 88 58.5 169.5t84.5 136.5h-217v98h339v-94q-46 -61 -80 -142z" />
    <glyph glyph-name="eight.denominator" horiz-adv-x="402" 
d="M322.5 382q45.5 -32 45.5 -85q0 -32 -20.5 -55t-57.5 -31v-2q40 -8 64 -34t24 -63q0 -58 -47 -90t-130 -32t-130 32t-47 90q0 37 24 63t65 34v2q-37 8 -58 31t-21 55q0 53 46 85t121 32q76 0 121.5 -32zM164 317.5q-14 -10.5 -14 -28.5t14 -29t37 -11t37 11t14 29
t-14 28.5t-37 10.5t-37 -10.5zM162.5 151.5q-14.5 -11.5 -14.5 -30.5q0 -20 14 -31.5t39 -11.5t39.5 11.5t14.5 31.5q0 19 -15 30.5t-39 11.5t-38.5 -11.5z" />
    <glyph glyph-name="nine.denominator" horiz-adv-x="401" 
d="M74.5 25q-43.5 34 -47.5 95h125q2 -20 13.5 -31.5t30.5 -11.5q27 0 43.5 25t17.5 77h-1q-37 -35 -95 -35q-61 0 -100 36t-39 93q0 63 48 102.5t123 39.5q89 0 136.5 -52.5t47.5 -152.5q0 -103 -50 -161t-138 -58q-71 0 -114.5 34zM228.5 240q13.5 14 13.5 36t-13 35.5
t-36 13.5q-21 0 -34.5 -13t-13.5 -35q0 -23 13 -37t35 -14t35.5 14z" />
    <glyph glyph-name="zero.numerator" horiz-adv-x="419" 
d="M347 629q48 -55 48 -157t-48 -157t-138 -55q-89 0 -137 55t-48 157t48 157t137 55q90 0 138 -55zM165.5 561q-15.5 -31 -15.5 -89q0 -57 15.5 -88t43.5 -31q30 0 45 30.5t15 88.5t-15 89t-45 31q-28 0 -43.5 -31z" />
    <glyph glyph-name="one.numerator" horiz-adv-x="288" 
d="M112 270v244h-103v89q51 0 78.5 18t36.5 53h118v-404h-130z" />
    <glyph glyph-name="two.numerator" horiz-adv-x="412" 
d="M329 648.5q45 -35.5 45 -90.5q0 -48 -29 -78.5t-84 -52.5q-53 -22 -70 -34t-19 -27h214v-96h-357q-1 8 -1 25q0 67 26.5 108.5t94.5 75.5q55 26 77 42t22 40q0 15 -11 24t-30 9q-23 0 -36 -14t-13 -41h-124q0 69 45.5 107t127.5 38q77 0 122 -35.5z" />
    <glyph glyph-name="three.numerator" horiz-adv-x="406" 
d="M327 652q47 -32 47 -85q0 -32 -17.5 -53t-56.5 -34v-1q41 -13 60 -36t19 -60q0 -58 -45.5 -90.5t-128.5 -32.5q-88 0 -136 37.5t-48 109.5h124q0 -56 60 -56q23 0 37 10.5t14 27.5q0 40 -65 40h-14v87h13q29 0 46 11t17 30q0 17 -14 27t-37 10q-27 0 -41 -14t-14 -39
h-120q0 67 46.5 105t129.5 38q77 0 124 -32z" />
    <glyph glyph-name="four.numerator" horiz-adv-x="407" 
d="M327 346v-76h-121v76h-197v94l159 234h159v-236h70v-92h-70zM212 438v37q0 68 4 120h-1q-36 -66 -64 -106l-36 -51h97z" />
    <glyph glyph-name="five.numerator" horiz-adv-x="407" 
d="M159 577l-7 -64h2q33 27 85 27q62 0 101.5 -37.5t39.5 -97.5q0 -66 -48 -105.5t-128 -39.5t-128 34.5t-48 94.5h126q1 -20 14.5 -31t35.5 -11q25 0 39.5 15.5t14.5 41.5q0 25 -14 39.5t-38 14.5q-21 0 -33.5 -9.5t-16.5 -26.5l-122 7l24 245h295v-97h-194z" />
    <glyph glyph-name="six.numerator" horiz-adv-x="401" 
d="M326.5 650q43.5 -34 47.5 -95h-124q-2 20 -13.5 31.5t-30.5 11.5q-59 0 -62 -102h2q37 35 94 35q61 0 100 -36t39 -93q0 -63 -48 -102.5t-123 -39.5q-88 0 -136 52.5t-48 152.5q0 103 50 161t138 58q71 0 114.5 -34zM172.5 435q-13.5 -14 -13.5 -36t13.5 -35.5
t35.5 -13.5t35 13t13 35q0 23 -13 37t-35 14t-35.5 -14z" />
    <glyph glyph-name="seven.numerator" horiz-adv-x="358" 
d="M268 438q-34 -81 -52 -168h-133q20 88 58.5 169.5t84.5 136.5h-217v98h339v-94q-46 -61 -80 -142z" />
    <glyph glyph-name="eight.numerator" horiz-adv-x="402" 
d="M322.5 652q45.5 -32 45.5 -85q0 -32 -20.5 -55t-57.5 -31v-2q40 -8 64 -34t24 -63q0 -58 -47 -90t-130 -32t-130 32t-47 90q0 37 24 63t65 34v2q-37 8 -58 31t-21 55q0 53 46 85t121 32q76 0 121.5 -32zM164 587.5q-14 -10.5 -14 -28.5t14 -29t37 -11t37 11t14 29
t-14 28.5t-37 10.5t-37 -10.5zM162.5 421.5q-14.5 -11.5 -14.5 -30.5q0 -20 14 -31.5t39 -11.5t39.5 11.5t14.5 31.5q0 19 -15 30.5t-39 11.5t-38.5 -11.5z" />
    <glyph glyph-name="nine.numerator" horiz-adv-x="401" 
d="M74.5 295q-43.5 34 -47.5 95h125q2 -20 13.5 -31.5t30.5 -11.5q27 0 43.5 25t17.5 77h-1q-37 -35 -95 -35q-61 0 -100 36t-39 93q0 63 48 102.5t123 39.5q89 0 136.5 -52.5t47.5 -152.5q0 -103 -50 -161t-138 -58q-71 0 -114.5 34zM228.5 510q13.5 14 13.5 36t-13 35.5
t-36 13.5q-21 0 -34.5 -13t-13.5 -35q0 -23 13 -37t35 -14t35.5 14z" />
    <glyph glyph-name="zero.inferior" unicode="&#x2080;" horiz-adv-x="481" 
d="M397 246.5q55 -64.5 55 -182.5q0 -119 -55 -183t-156 -64q-102 0 -157 64t-55 183q0 118 55 182.5t157 64.5q101 0 156 -64.5zM188 170.5q-18 -37.5 -18 -106.5q0 -70 18 -107.5t53 -37.5q34 0 51.5 37.5t17.5 107.5q0 69 -17.5 106.5t-51.5 37.5q-35 0 -53 -37.5z" />
    <glyph glyph-name="one.inferior" unicode="&#x2081;" horiz-adv-x="335" 
d="M135 -172v288h-125v101q67 0 100 19.5t40 63.5h125v-472h-140z" />
    <glyph glyph-name="two.inferior" unicode="&#x2082;" horiz-adv-x="471" 
d="M337.5 292q43.5 -19 67 -51.5t23.5 -74.5q0 -57 -33 -91.5t-97 -62.5q-60 -26 -80 -41t-22 -33h245v-110h-407q-2 16 -2 28q0 77 31 126t110 88q61 29 86.5 49t25.5 47q0 20 -13 31t-35 11q-28 0 -43 -16.5t-16 -48.5h-140q1 81 53 124.5t145 43.5q58 0 101.5 -19z" />
    <glyph glyph-name="three.inferior" unicode="&#x2083;" horiz-adv-x="464" 
d="M374.5 275q51.5 -36 51.5 -98q0 -38 -20 -62.5t-64 -40.5v-2q47 -15 68.5 -41t21.5 -69q0 -67 -53.5 -106t-144.5 -39q-101 0 -155.5 44t-54.5 126h142q0 -34 17.5 -51t50.5 -17q27 0 43 12t16 34q0 51 -79 51h-13v99h16q33 0 52 13t19 36q0 21 -14.5 33t-41.5 12
q-31 0 -47 -17t-16 -48h-137q0 79 53 123t148 44q90 0 141.5 -36z" />
    <glyph glyph-name="four.inferior" unicode="&#x2084;" horiz-adv-x="466" 
d="M373 -81v-91h-136v91h-227v106l184 275h179v-280h81v-101h-81zM243 20v48q0 61 5 136h-2q-30 -54 -74 -118l-44 -66h115z" />
    <glyph glyph-name="five.inferior" unicode="&#x2085;" horiz-adv-x="466" 
d="M179 189l-8 -78h2q40 32 98 32q72 0 117.5 -42.5t45.5 -110.5q0 -79 -55.5 -126t-147.5 -47t-145.5 39.5t-53.5 110.5h140q1 -23 17 -36.5t42 -13.5q30 0 46.5 17t16.5 49q0 31 -16.5 48t-44.5 17q-24 0 -38.5 -11.5t-19.5 -30.5l-136 8l27 286h337v-111h-224z" />
    <glyph glyph-name="six.inferior" unicode="&#x2086;" horiz-adv-x="460" 
d="M373.5 272q49.5 -39 54.5 -109h-140q-6 49 -51 49q-70 0 -74 -118h2q41 41 110 41q71 0 115 -41.5t44 -108.5q0 -49 -25 -87t-70 -59.5t-102 -21.5q-99 0 -153.5 61t-54.5 177q0 120 57 188t158 68q80 0 129.5 -39zM195 25q-16 -17 -16 -46q0 -27 16 -43.5t42 -16.5
t42.5 16.5t16.5 44.5t-16 45t-43 17q-26 0 -42 -17z" />
    <glyph glyph-name="seven.inferior" unicode="&#x2087;" horiz-adv-x="414" 
d="M308.5 25.5q-39.5 -95.5 -59.5 -197.5h-150q23 103 68 198t98 159h-255v115h392v-108q-54 -71 -93.5 -166.5z" />
    <glyph glyph-name="eight.inferior" unicode="&#x2088;" horiz-adv-x="461" 
d="M368.5 274.5q52.5 -36.5 52.5 -96.5q0 -39 -23.5 -66.5t-65.5 -37.5v-2q46 -9 73.5 -40t27.5 -75q0 -66 -54 -103t-149 -37t-148.5 37t-53.5 103q0 44 27.5 75t73.5 40v2q-41 10 -65.5 38t-24.5 66q0 60 52.5 96.5t138.5 36.5t138.5 -36.5zM186 199.5
q-16 -12.5 -16 -34.5q0 -23 16 -36t44 -13t44.5 13t16.5 36q0 22 -16.5 34.5t-44.5 12.5t-44 -12.5zM184 6q-17 -14 -17 -38q0 -23 17 -37t46 -14q30 0 47 14t17 37q0 24 -17 38t-47 14q-29 0 -46 -14z" />
    <glyph glyph-name="nine.inferior" unicode="&#x2089;" horiz-adv-x="460" 
d="M86 -144q-49 39 -54 109h140q2 -24 15 -36.5t36 -12.5q70 0 74 118h-2q-41 -41 -110 -41q-71 0 -115 41.5t-44 108.5q0 49 25 87t69.5 59.5t102.5 21.5q99 0 153.5 -61t54.5 -177q0 -120 -57 -188t-158 -68q-81 0 -130 39zM264.5 103.5q16.5 17.5 16.5 45.5
q0 27 -16.5 43.5t-42.5 16.5t-42 -16.5t-16 -44.5t16 -45t42 -17t42.5 17.5z" />
    <glyph glyph-name="zero.superior" unicode="&#x2070;" horiz-adv-x="481" 
d="M397 748.5q55 -64.5 55 -182.5q0 -119 -55 -183t-156 -64q-102 0 -157 64t-55 183q0 118 55 182.5t157 64.5q101 0 156 -64.5zM188 672.5q-18 -37.5 -18 -106.5q0 -70 18 -107.5t53 -37.5q34 0 51.5 37.5t17.5 107.5q0 69 -17.5 106.5t-51.5 37.5q-35 0 -53 -37.5z" />
    <glyph glyph-name="onesuperior" unicode="&#xb9;" horiz-adv-x="335" 
d="M136 330v288h-125v101q67 0 100 19.5t40 63.5h125v-472h-140z" />
    <glyph glyph-name="twosuperior" unicode="&#xb2;" horiz-adv-x="471" 
d="M337.5 794q43.5 -19 67 -51.5t23.5 -74.5q0 -57 -33 -91.5t-97 -62.5q-60 -26 -80 -41t-22 -33h245v-110h-407q-2 16 -2 28q0 77 31 126t110 88q61 29 86.5 49t25.5 47q0 20 -13 31t-35 11q-28 0 -43 -16.5t-16 -48.5h-140q1 81 53 124.5t145 43.5q58 0 101.5 -19z" />
    <glyph glyph-name="threesuperior" unicode="&#xb3;" horiz-adv-x="464" 
d="M374.5 777q51.5 -36 51.5 -98q0 -38 -20 -62.5t-64 -40.5v-2q47 -15 68.5 -41t21.5 -69q0 -67 -53.5 -106t-144.5 -39q-101 0 -155.5 44t-54.5 126h142q0 -34 17.5 -51t50.5 -17q27 0 43 12t16 34q0 51 -79 51h-13v99h16q33 0 52 13t19 36q0 21 -14.5 33t-41.5 12
q-31 0 -47 -17t-16 -48h-137q0 79 53 123t148 44q90 0 141.5 -36z" />
    <glyph glyph-name="four.superior" unicode="&#x2074;" horiz-adv-x="466" 
d="M374 421v-91h-136v91h-227v106l184 275h179v-280h81v-101h-81zM244 522v48q0 61 5 136h-2q-30 -54 -74 -118l-44 -66h115z" />
    <glyph glyph-name="five.superior" unicode="&#x2075;" horiz-adv-x="466" 
d="M179 691l-8 -78h2q40 32 98 32q72 0 117.5 -42.5t45.5 -110.5q0 -79 -55.5 -126t-147.5 -47t-145.5 39.5t-53.5 110.5h140q1 -23 17 -36.5t42 -13.5q30 0 46.5 17t16.5 49q0 31 -16.5 48t-44.5 17q-24 0 -38.5 -11.5t-19.5 -30.5l-136 8l27 286h337v-111h-224z" />
    <glyph glyph-name="six.superior" unicode="&#x2076;" horiz-adv-x="460" 
d="M373.5 774q49.5 -39 54.5 -109h-140q-6 49 -51 49q-70 0 -74 -118h2q41 41 110 41q71 0 115 -41.5t44 -108.5q0 -49 -25 -87t-70 -59.5t-102 -21.5q-99 0 -153.5 61t-54.5 177q0 120 57 188t158 68q80 0 129.5 -39zM195 527q-16 -17 -16 -46q0 -27 16 -43.5t42 -16.5
t42.5 16.5t16.5 44.5t-16 45t-43 17q-26 0 -42 -17z" />
    <glyph glyph-name="seven.superior" unicode="&#x2077;" horiz-adv-x="414" 
d="M309.5 527.5q-39.5 -95.5 -59.5 -197.5h-150q23 103 68 198t98 159h-255v115h392v-108q-54 -71 -93.5 -166.5z" />
    <glyph glyph-name="eight.superior" unicode="&#x2078;" horiz-adv-x="461" 
d="M368.5 776.5q52.5 -36.5 52.5 -96.5q0 -39 -23.5 -66.5t-65.5 -37.5v-2q46 -9 73.5 -40t27.5 -75q0 -66 -54 -103t-149 -37t-148.5 37t-53.5 103q0 44 27.5 75t73.5 40v2q-41 10 -65.5 38t-24.5 66q0 60 52.5 96.5t138.5 36.5t138.5 -36.5zM186 701.5
q-16 -12.5 -16 -34.5q0 -23 16 -36t44 -13t44.5 13t16.5 36q0 22 -16.5 34.5t-44.5 12.5t-44 -12.5zM184 508q-17 -14 -17 -38q0 -23 17 -37t46 -14q30 0 47 14t17 37q0 24 -17 38t-47 14q-29 0 -46 -14z" />
    <glyph glyph-name="nine.superior" unicode="&#x2079;" horiz-adv-x="460" 
d="M86 358q-49 39 -54 109h140q2 -24 15 -36.5t36 -12.5q70 0 74 118h-2q-41 -41 -110 -41q-71 0 -115 41.5t-44 108.5q0 49 25 87t69.5 59.5t102.5 21.5q99 0 153.5 -61t54.5 -177q0 -120 -57 -188t-158 -68q-81 0 -130 39zM264.5 605.5q16.5 17.5 16.5 45.5
q0 27 -16.5 43.5t-42.5 16.5t-42 -16.5t-16 -44.5t16 -45t42 -17t42.5 17.5z" />
    <glyph glyph-name="zero.smcp" horiz-adv-x="531" 
d="M444 486q63 -75 63 -212t-63 -212t-179 -75q-115 0 -178 75t-63 212t63 212t178 75q116 0 179 -75zM206.5 398.5q-20.5 -43.5 -20.5 -124.5t20.5 -125t58.5 -44q39 0 59 44t20 125t-20 124.5t-59 43.5q-38 0 -58.5 -43.5z" />
    <glyph glyph-name="one.smcp" horiz-adv-x="531" 
d="M217 0v336h-139v115q74 0 111 23t45 74h144v-548h-161z" />
    <glyph glyph-name="two.smcp" horiz-adv-x="531" 
d="M378.5 539.5q49.5 -21.5 76 -60t26.5 -87.5q0 -66 -37.5 -106t-109.5 -72q-68 -31 -90.5 -48.5t-24.5 -38.5h277v-127h-464q-1 9 -1 32q0 90 34.5 146.5t124.5 102.5q70 36 98.5 58.5t28.5 54.5q0 22 -14 35t-39 13q-31 0 -48 -19t-17 -57h-160q0 93 59 144t165 51
q66 0 115.5 -21.5z" />
    <glyph glyph-name="three.smcp" horiz-adv-x="531" 
d="M423 519q59 -42 59 -113q0 -45 -22.5 -73.5t-72.5 -46.5v-2q53 -17 78 -48t25 -81q0 -77 -61 -122.5t-165 -45.5q-116 0 -177.5 51t-61.5 147h162q0 -79 77 -79q29 0 47 14.5t18 38.5q0 30 -22 44.5t-68 14.5h-14v115h18q37 0 59 15t22 41q0 24 -16.5 38.5t-46.5 14.5
q-34 0 -52 -19.5t-18 -55.5h-158q0 91 60.5 142.5t168.5 51.5q102 0 161 -42z" />
    <glyph glyph-name="four.smcp" horiz-adv-x="531" 
d="M427 105v-105h-157v105h-261v124l212 319h206v-325h91v-118h-91zM276 223v56q0 80 6 159h-2q-36 -68 -84 -139l-51 -76h131z" />
    <glyph glyph-name="five.smcp" horiz-adv-x="531" 
d="M205 421l-9 -92h2q45 39 110 39q54 0 96.5 -23t66 -64t23.5 -93q0 -60 -28.5 -105.5t-81 -70.5t-121.5 -25q-104 0 -165 46t-61 128h162q1 -27 18.5 -42.5t46.5 -15.5q33 0 51.5 19.5t18.5 57.5q0 37 -18.5 56.5t-50.5 19.5q-26 0 -42 -13.5t-22 -35.5l-156 10l31 331
h384v-127h-255z" />
    <glyph glyph-name="six.smcp" horiz-adv-x="531" 
d="M429 516q56 -45 62 -126h-161q-3 28 -17.5 42.5t-39.5 14.5q-77 0 -83 -139h2q48 49 124 49q53 0 94.5 -22t64.5 -62t23 -91q0 -57 -28.5 -101.5t-79.5 -69t-117 -24.5q-113 0 -175 70.5t-62 205.5q0 140 65 219t180 79q92 0 148 -45zM226.5 228q-17.5 -20 -17.5 -52
t18 -52t47 -20q28 0 46 20t18 52t-17.5 52t-47.5 20q-29 0 -46.5 -20z" />
    <glyph glyph-name="seven.smcp" horiz-adv-x="531" 
d="M379.5 228q-43.5 -110 -65.5 -228h-176q26 120 75.5 230.5t108.5 183.5h-284v134h445v-127q-60 -83 -103.5 -193z" />
    <glyph glyph-name="eight.smcp" horiz-adv-x="531" 
d="M379.5 541.5q49.5 -19.5 76.5 -54t27 -80.5q0 -45 -27 -77.5t-75 -44.5v-2q52 -11 83.5 -47t31.5 -87q0 -77 -61 -119.5t-170 -42.5q-108 0 -169 42.5t-61 119.5q0 51 31 87t83 47v2q-47 12 -74 44.5t-27 77.5q0 46 27 80.5t76.5 54t113.5 19.5q65 0 114.5 -19.5z
M216 432q-18 -15 -18 -41q0 -25 18.5 -40.5t48.5 -15.5q31 0 49.5 15.5t18.5 40.5q0 26 -18.5 41t-49.5 15t-49 -15zM213.5 207q-18.5 -16 -18.5 -44t19 -44.5t51 -16.5q33 0 52 16.5t19 44.5t-19 44t-52 16t-51.5 -16z" />
    <glyph glyph-name="nine.smcp" horiz-adv-x="531" 
d="M101.5 32.5q-56.5 45.5 -62.5 125.5h161q8 -57 57 -57q78 0 84 139h-2q-48 -49 -124 -49q-53 0 -94.5 22t-64.5 62t-23 91q0 57 28.5 101.5t79.5 69t117 24.5q113 0 175 -70.5t62 -205.5q0 -140 -65 -219t-180 -79q-92 0 -148.5 45.5zM304 320q18 20 18 52t-18 52t-47 20
t-47 -20t-18 -52t18 -52t47 -20t47 20z" />
    <glyph glyph-name="zero.lf.smcp" horiz-adv-x="557" 
d="M457 486q63 -75 63 -212t-63 -212t-179 -75q-115 0 -178 75t-63 212t63 212t178 75q116 0 179 -75zM219.5 398.5q-20.5 -43.5 -20.5 -124.5t20.5 -125t58.5 -44q39 0 59 44t20 125t-20 124.5t-59 43.5q-38 0 -58.5 -43.5z" />
    <glyph glyph-name="one.lf.smcp" horiz-adv-x="383" 
d="M152 0v336h-139v115q74 0 111 23t45 74h144v-548h-161z" />
    <glyph glyph-name="two.lf.smcp" horiz-adv-x="545" 
d="M389.5 539.5q49.5 -21.5 76 -60t26.5 -87.5q0 -66 -37.5 -106t-109.5 -72q-68 -31 -90.5 -48.5t-24.5 -38.5h277v-127h-464q-1 9 -1 32q0 90 34.5 146.5t124.5 102.5q70 36 98.5 58.5t28.5 54.5q0 22 -14 35t-39 13q-31 0 -48 -19t-17 -57h-160q0 93 59 144t165 51
q66 0 115.5 -21.5z" />
    <glyph glyph-name="three.lf.smcp" horiz-adv-x="538" 
d="M430 519q59 -42 59 -113q0 -45 -22.5 -73.5t-72.5 -46.5v-2q53 -17 78 -48t25 -81q0 -77 -61 -122.5t-165 -45.5q-116 0 -177.5 51t-61.5 147h162q0 -79 77 -79q29 0 47 14.5t18 38.5q0 30 -22 44.5t-68 14.5h-14v115h18q37 0 59 15t22 41q0 24 -16.5 38.5t-46.5 14.5
q-34 0 -52 -19.5t-18 -55.5h-158q0 91 60.5 142.5t168.5 51.5q102 0 161 -42z" />
    <glyph glyph-name="four.lf.smcp" horiz-adv-x="536" 
d="M432 105v-105h-157v105h-261v124l212 319h206v-325h91v-118h-91zM281 223v56q0 80 6 159h-2q-36 -68 -84 -139l-51 -76h131z" />
    <glyph glyph-name="five.lf.smcp" horiz-adv-x="540" 
d="M209 421l-9 -92h2q45 39 110 39q54 0 96.5 -23t66 -64t23.5 -93q0 -60 -28.5 -105.5t-81 -70.5t-121.5 -25q-104 0 -165 46t-61 128h162q1 -27 18.5 -42.5t46.5 -15.5q33 0 51.5 19.5t18.5 57.5q0 37 -18.5 56.5t-50.5 19.5q-26 0 -42 -13.5t-22 -35.5l-156 10l31 331
h384v-127h-255z" />
    <glyph glyph-name="six.lf.smcp" horiz-adv-x="532" 
d="M430 516q56 -45 62 -126h-161q-3 28 -17.5 42.5t-39.5 14.5q-77 0 -83 -139h2q48 49 124 49q53 0 94.5 -22t64.5 -62t23 -91q0 -57 -28.5 -101.5t-79.5 -69t-117 -24.5q-113 0 -175 70.5t-62 205.5q0 140 65 219t180 79q92 0 148 -45zM227.5 228q-17.5 -20 -17.5 -52
t18 -52t47 -20q28 0 46 20t18 52t-17.5 52t-47.5 20q-29 0 -46.5 -20z" />
    <glyph glyph-name="seven.lf.smcp" horiz-adv-x="472" 
d="M354.5 228q-43.5 -110 -65.5 -228h-176q26 120 75.5 230.5t108.5 183.5h-284v134h445v-127q-60 -83 -103.5 -193z" />
    <glyph glyph-name="eight.lf.smcp" horiz-adv-x="534" 
d="M381.5 541.5q49.5 -19.5 76.5 -54t27 -80.5q0 -45 -27 -77.5t-75 -44.5v-2q52 -11 83.5 -47t31.5 -87q0 -77 -61 -119.5t-170 -42.5q-108 0 -169 42.5t-61 119.5q0 51 31 87t83 47v2q-47 12 -74 44.5t-27 77.5q0 46 27 80.5t76.5 54t113.5 19.5q65 0 114.5 -19.5z
M218 432q-18 -15 -18 -41q0 -25 18.5 -40.5t48.5 -15.5q31 0 49.5 15.5t18.5 40.5q0 26 -18.5 41t-49.5 15t-49 -15zM215.5 207q-18.5 -16 -18.5 -44t19 -44.5t51 -16.5q33 0 52 16.5t19 44.5t-19 44t-52 16t-51.5 -16z" />
    <glyph glyph-name="nine.lf.smcp" horiz-adv-x="532" 
d="M101.5 32.5q-56.5 45.5 -62.5 125.5h161q8 -57 57 -57q78 0 84 139h-2q-48 -49 -124 -49q-53 0 -94.5 22t-64.5 62t-23 91q0 57 28.5 101.5t79.5 69t117 24.5q113 0 175 -70.5t62 -205.5q0 -140 -65 -219t-180 -79q-92 0 -148.5 45.5zM304 320q18 20 18 52t-18 52t-47 20
t-47 -20t-18 -52t18 -52t47 -20t47 20z" />
    <glyph glyph-name="periodcentered" unicode="&#xb7;" horiz-adv-x="274" 
d="M49 214v183h176v-183h-176z" />
    <glyph glyph-name="bullet" unicode="&#x2022;" horiz-adv-x="389" 
d="M117.5 222q-35.5 21 -56.5 56.5t-21 77.5t21 77.5t56.5 56.5t77.5 21t77.5 -21t56 -56.5t20.5 -77.5t-20.5 -77.5t-56 -56.5t-77.5 -21t-77.5 21z" />
    <glyph glyph-name="ellipsis" unicode="&#x2026;" horiz-adv-x="943" 
d="M49 0v184h176v-184h-176zM384 0v184h176v-184h-176zM718 0v184h176v-184h-176z" />
    <glyph glyph-name="exclamdown" unicode="&#xa1;" horiz-adv-x="346" 
d="M261 508v-147h-177v147h177zM240 298l30 -502h-195l31 502h134z" />
    <glyph glyph-name="overline" unicode="&#x203e;" horiz-adv-x="500" 
d="M0 776v103h500v-103h-500z" />
    <glyph glyph-name="questiondown" unicode="&#xbf;" horiz-adv-x="542" 
d="M382 508v-147h-177v147h177zM101 -169q-66 50 -66 139q0 51 20.5 87t78.5 84q37 32 55.5 55t26 48.5t7.5 65.5h140q2 -15 2 -44q0 -44 -7 -72.5t-26 -54t-58 -60.5q-41 -37 -53 -57.5t-12 -48.5q0 -29 19.5 -45.5t54.5 -16.5q86 0 87 98h172q-2 -112 -69 -170t-190 -58
q-116 0 -182 50z" />
    <glyph glyph-name="underscoredbl" unicode="&#x2017;" horiz-adv-x="500" 
d="M0 -134v84h500v-84h-500zM0 -291v84h500v-84h-500z" />
    <glyph glyph-name="periodcentered.case" horiz-adv-x="274" 
d="M49 264v183h176v-183h-176z" />
    <glyph glyph-name="exclamdown.case" horiz-adv-x="346" 
d="M261 712v-147h-177v147h177zM240 502l30 -502h-195l31 502h134z" />
    <glyph glyph-name="periodcentered.loclCAT.case" horiz-adv-x="83" 
d="M-177 345v183h176v-183h-176z" />
    <glyph glyph-name="questiondown.case" horiz-adv-x="570" 
d="M382 712v-147h-177v147h177zM101 35q-66 50 -66 139q0 51 20.5 87t78.5 84q37 32 55.5 55t26 48.5t7.5 65.5h140q2 -15 2 -44q0 -44 -7 -72.5t-26 -54t-58 -60.5q-41 -37 -53 -57.5t-12 -48.5q0 -29 19.5 -45.5t54.5 -16.5q86 0 87 98h172q-2 -112 -69 -170t-190 -58
q-116 0 -182 50z" />
    <glyph glyph-name="slash.case" horiz-adv-x="503" 
d="M62 0l254 712h124l-253 -712h-125z" />
    <glyph glyph-name="periodcentered.loclCAT" horiz-adv-x="225" 
d="M25 264v183h176v-183h-176z" />
    <glyph glyph-name="uni208D" unicode="&#x208d;" horiz-adv-x="263" 
d="M187.5 189q-16.5 -74 -16.5 -153t16.5 -153t54.5 -158h-108q-56 76 -81 151t-25 160t25 160t81 151h108q-38 -84 -54.5 -158z" />
    <glyph glyph-name="parenleftsuperior" unicode="&#x207d;" horiz-adv-x="263" 
d="M187.5 691q-16.5 -74 -16.5 -153t16.5 -153t54.5 -158h-108q-56 76 -81 151t-25 160t25 160t81 151h108q-38 -84 -54.5 -158z" />
    <glyph glyph-name="uni208E" unicode="&#x208e;" horiz-adv-x="263" 
d="M76 -117q17 74 17 153q0 78 -17 152t-55 159h108q56 -76 81 -150.5t25 -160.5t-25 -161t-81 -150h-108q38 84 55 158z" />
    <glyph glyph-name="parenrightsuperior" unicode="&#x207e;" horiz-adv-x="263" 
d="M76 385q17 74 17 153q0 78 -17 152t-55 159h108q56 -76 81 -150.5t25 -160.5t-25 -161t-81 -150h-108q38 84 55 158z" />
    <glyph glyph-name="braceleft.case" horiz-adv-x="361" 
d="M274 657q-17 -18 -17 -64v-100q0 -58 -24.5 -90t-76.5 -45v-3q52 -14 76.5 -45.5t24.5 -89.5v-101q0 -46 17 -64t59 -20v-95h-25q-77 0 -120.5 19t-62 59t-18.5 107v92q0 41 -14.5 60t-52.5 29v100q38 11 52.5 30t14.5 60v91q0 67 18.5 107t62 59t120.5 19h25v-95
q-42 -2 -59 -20z" />
    <glyph glyph-name="braceright.case" horiz-adv-x="361" 
d="M173.5 753q43.5 -19 61.5 -59t18 -107v-91q0 -41 14.5 -60t53.5 -30v-100q-39 -10 -53.5 -29t-14.5 -60v-92q0 -67 -18 -107t-61.5 -59t-120.5 -19h-25v95q42 2 59 20t17 64v101q0 58 24.5 89.5t76.5 45.5v3q-52 13 -76.5 45t-24.5 90v100q0 46 -17 64t-59 20v95h25
q77 0 120.5 -19z" />
    <glyph glyph-name="bracketleft.case" horiz-adv-x="358" 
d="M221 667v-623h117v-104h-273v832h273v-105h-117z" />
    <glyph glyph-name="bracketright.case" horiz-adv-x="358" 
d="M293 -60h-273v104h117v623h-117v105h273v-832z" />
    <glyph glyph-name="parenleft.case" horiz-adv-x="349" 
d="M239.5 564.5q-24.5 -98.5 -24.5 -208.5t24.5 -208.5t79.5 -207.5h-134q-75 99 -109.5 199t-34.5 217t34.5 217t109.5 199h134q-55 -109 -79.5 -207.5z" />
    <glyph glyph-name="parenright.case" horiz-adv-x="349" 
d="M273.5 573q34.5 -100 34.5 -217t-34.5 -217t-109.5 -199h-134q55 109 79.5 207.5t24.5 208.5t-24.5 208.5t-79.5 207.5h134q75 -99 109.5 -199z" />
    <glyph glyph-name="bracketleft.sups" horiz-adv-x="273" 
d="M173 760v-444h85v-89h-212v624h213v-91h-86z" />
    <glyph glyph-name="bracketright.sups" horiz-adv-x="273" 
d="M227 227h-212v89h85v444h-86v91h213v-624z" />
    <glyph glyph-name="emdash" unicode="&#x2014;" horiz-adv-x="1000" 
d="M20 231v122h960v-122h-960z" />
    <glyph glyph-name="endash" unicode="&#x2013;" horiz-adv-x="500" 
d="M20 231v122h460v-122h-460z" />
    <glyph glyph-name="uni2015" unicode="&#x2015;" horiz-adv-x="1000" 
d="M20 231v122h960v-122h-960z" />
    <glyph glyph-name="uni2010" unicode="&#x2010;" horiz-adv-x="337" 
d="M30 231v122h277v-122h-277z" />
    <glyph glyph-name="uni00AD" unicode="&#xad;" horiz-adv-x="337" 
d="M30 231v122h277v-122h-277z" />
    <glyph glyph-name="emdash.case" horiz-adv-x="1000" 
d="M20 295v122h960v-122h-960z" />
    <glyph glyph-name="endash.case" horiz-adv-x="500" 
d="M20 295v122h460v-122h-460z" />
    <glyph glyph-name="hyphen.case" horiz-adv-x="337" 
d="M30 295v122h277v-122h-277z" />
    <glyph glyph-name="guillemotleft" unicode="&#xab;" horiz-adv-x="570" 
d="M528 54h-142l-114 200l114 200h142l-106 -200zM299 54h-142l-114 200l114 200h142l-106 -200z" />
    <glyph glyph-name="guillemotright" unicode="&#xbb;" horiz-adv-x="570" 
d="M299 254l-114 -200h-142l106 200l-106 200h142zM528 254l-114 -200h-143l106 200l-106 200h143z" />
    <glyph glyph-name="guilsinglleft" unicode="&#x2039;" horiz-adv-x="342" 
d="M299 54h-142l-114 200l114 200h142l-106 -200z" />
    <glyph glyph-name="guilsinglright" unicode="&#x203a;" horiz-adv-x="342" 
d="M299 254l-114 -200h-142l106 200l-106 200h142z" />
    <glyph glyph-name="quotedblbase" unicode="&#x201e;" horiz-adv-x="466" 
d="M130 -152h-83l59 152h-49v156h150v-156zM330 -152h-83l59 152h-49v156h150v-156z" />
    <glyph glyph-name="quotedblleft" unicode="&#x201c;" horiz-adv-x="466" 
d="M136 712h83l-59 -151h49v-157h-150v157zM336 712h83l-59 -151h49v-157h-150v157z" />
    <glyph glyph-name="quotedblright" unicode="&#x201d;" horiz-adv-x="466" 
d="M130 404h-83l59 152h-49v156h150v-156zM330 404h-83l59 152h-49v156h150v-156z" />
    <glyph glyph-name="quoteleft" unicode="&#x2018;" horiz-adv-x="266" 
d="M136 712h83l-59 -151h49v-157h-150v157z" />
    <glyph glyph-name="quoteright" unicode="&#x2019;" horiz-adv-x="266" 
d="M130 404h-83l59 152h-49v156h150v-156z" />
    <glyph glyph-name="quotesinglbase" unicode="&#x201a;" horiz-adv-x="266" 
d="M130 -152h-83l59 152h-49v156h150v-156z" />
    <glyph glyph-name="guillemotleft.case" horiz-adv-x="570" 
d="M299 156h-142l-114 200l114 200h142l-106 -200zM528 156h-142l-114 200l114 200h142l-106 -200z" />
    <glyph glyph-name="guillemotright.case" horiz-adv-x="570" 
d="M299 356l-114 -200h-142l106 200l-106 200h142zM528 356l-114 -200h-143l106 200l-106 200h143z" />
    <glyph glyph-name="guilsinglleft.case" horiz-adv-x="342" 
d="M299 156h-142l-114 200l114 200h142l-106 -200z" />
    <glyph glyph-name="guilsinglright.case" horiz-adv-x="342" 
d="M299 356l-114 -200h-142l106 200l-106 200h142z" />
    <glyph glyph-name="quoteright.loclFRA" horiz-adv-x="292" 
d="M143 404h-83l59 152h-49v156h150v-156z" />
    <glyph glyph-name="periodcentered.loclCAT.smcp" horiz-adv-x="63" 
d="M-146 277v170h163v-170h-163z" />
    <glyph glyph-name="uni00A0" unicode="&#xa0;" horiz-adv-x="230" 
 />
    <glyph glyph-name="cent" unicode="&#xa2;" horiz-adv-x="628" 
d="M377.5 212q21.5 25 23.5 69h173q-7 -85 -58 -142t-134 -72v-95h-119v94q-96 17 -152 87.5t-56 178.5q0 107 55.5 177t152.5 87v95h119v-96q83 -16 134 -70.5t58 -133.5h-172q-4 40 -25.5 62.5t-55.5 22.5q-44 0 -68 -38t-24 -106q0 -69 24.5 -107t68.5 -38q34 0 55.5 25z
" />
    <glyph glyph-name="currency" unicode="&#xa4;" horiz-adv-x="628" 
d="M505 180l75 -80l-91 -85l-76 82q-45 -20 -99 -20t-99 20l-76 -82l-92 85l76 81q-27 47 -27 110q0 60 27 111l-76 80l92 85l76 -82q45 20 99 20t99 -20l76 82l91 -85l-75 -80q27 -51 27 -111t-27 -111zM386 215.5q27 28.5 27 75.5t-27 75.5t-72 28.5t-72.5 -28.5
t-27.5 -75.5t27.5 -75.5t72.5 -28.5t72 28.5z" />
    <glyph glyph-name="Euro" unicode="&#x20ac;" horiz-adv-x="628" 
d="M533 45q-71 -61 -186 -61q-117 0 -190.5 66.5t-94.5 190.5h-61l14 73h40v23v15h-54l14 73h46q20 127 94 196t194 69q116 0 185 -61t77 -167h-166q-7 43 -32.5 66.5t-66.5 23.5q-95 0 -119 -127h210l-14 -73h-203v-15v-23h196l-14 -73h-173q24 -119 117 -119q41 0 67 24.5
t33 67.5h169q-11 -108 -82 -169z" />
    <glyph glyph-name="florin" unicode="&#x192;" horiz-adv-x="628" 
d="M603 714v-120q-23 6 -53 6q-40 0 -62.5 -19.5t-33.5 -64.5l-12 -48h111v-118h-139l-85 -334q-28 -110 -82 -159t-148 -49q-43 0 -74 9v121q22 -6 50 -6q40 0 61 20.5t35 77.5l82 320h-101v118h129l16 62q26 100 79.5 147t143.5 47q45 0 83 -10z" />
    <glyph glyph-name="franc" unicode="&#x20a3;" horiz-adv-x="628" 
d="M272 423h292v-144h-292v-78h164v-119h-164v-82h-173v82h-76v119h76v473h488v-145h-315v-106z" />
    <glyph glyph-name="lira" unicode="&#x20a4;" horiz-adv-x="628" 
d="M590 135v-135h-567v137q41 0 62.5 21.5t25.5 72.5h-88v73h89v38h-89v73h89v27q0 122 64 185t185 63q108 0 171.5 -60t63.5 -162h-163q0 41 -19 63.5t-54 22.5q-79 0 -79 -111v-28h125v-73h-125v-38h125v-73h-126q-4 -34 -17.5 -56.5t-39.5 -37.5v-2h367z" />
    <glyph glyph-name="uni20BA" unicode="&#x20ba;" horiz-adv-x="628" 
d="M519 75.5q-91 -85.5 -259 -85.5q-79 0 -162 10v236l-85 -47v95l85 47v59l-85 -47v95l85 47v189h174v-108l161 88v-95l-161 -88v-59l161 88v-95l-161 -87v-178q76 0 116.5 46.5t40.5 138.5h181q0 -164 -91 -249.5z" />
    <glyph glyph-name="peseta" unicode="&#x20a7;" horiz-adv-x="937" 
d="M912 128v-125q-17 -5 -41 -8t-43 -3q-96 0 -139.5 40t-43.5 129v226h-43q-15 -88 -83 -137t-185 -49h-85v-201h-173v674h258q110 0 177 -43.5t87 -122.5h47v137h166v-137h96v-121h-96v-188q0 -41 15 -58.5t49 -17.5q20 0 37 5zM428 437q0 98 -118 98h-61v-195h61
q118 0 118 97z" />
    <glyph glyph-name="uni20BD" unicode="&#x20bd;" horiz-adv-x="628" 
d="M539.5 618.5q63.5 -55.5 63.5 -153.5t-63.5 -154t-186.5 -56h-94v-51h175v-112h-175v-92h-173v92h-74v112h74v51h-74v122h74v297h267q123 0 186.5 -55.5zM259 377h69q97 0 97 88q0 87 -97 87h-69v-175z" />
    <glyph glyph-name="uni20B9" unicode="&#x20b9;" horiz-adv-x="628" 
d="M483 522h114l-25 -93h-85q-11 -51 -52 -84t-106 -45v-2q34 -13 60 -41t51 -80l87 -177h-199l-75 167q-24 51 -54 73.5t-73 22.5h-15v106h50q50 0 83.5 15.5t48.5 44.5h-262l26 93h241q-25 59 -129 59h-138l26 93h540l-25 -93h-142v-2q38 -17 53 -57z" />
    <glyph glyph-name="sterling" unicode="&#xa3;" horiz-adv-x="628" 
d="M590 135v-135h-567v137q45 0 67 27t22 94v15h-89v128h89v41q0 122 64 185t185 63q108 0 171.5 -60t63.5 -162h-163q0 41 -19 63.5t-54 22.5q-79 0 -79 -111v-42h125v-128h-125v-13q0 -48 -13.5 -76.5t-44.5 -46.5v-2h367z" />
    <glyph glyph-name="yen" unicode="&#xa5;" horiz-adv-x="628" 
d="M557 342v-73h-156v-38h156v-74h-156v-157h-174v157h-156v74h156v38h-156v73h118l-172 332h189l39 -87q39 -92 68 -179h2q29 87 68 179l39 87h189l-172 -332h118z" />
    <glyph glyph-name="Omega" unicode="&#x2126;" horiz-adv-x="747" 
d="M617 649q91 -79 91 -232q0 -82 -34.5 -145.5t-97.5 -123.5v-2h143v-146h-299v152q51 52 79 107.5t28 129.5q0 92 -42 140.5t-112 48.5q-69 0 -111 -48.5t-42 -140.5q0 -74 28 -129.5t79 -107.5v-152h-299v146h143v2q-63 59 -97.5 123t-34.5 146q0 152 91 231.5t243 79.5
q153 0 244 -79z" />
    <glyph glyph-name="approxequal" unicode="&#x2248;" horiz-adv-x="566" 
d="M247 509.5q23 -10.5 53 -30.5q24 -16 37 -22.5t27 -6.5q22 0 34.5 15.5t12.5 41.5h98q0 -78 -38.5 -126.5t-101.5 -48.5q-27 0 -50 10.5t-53 30.5q-24 16 -37 22.5t-27 6.5q-22 0 -34.5 -15t-12.5 -42h-98q0 79 38 127t102 48q27 0 50 -10.5zM247 291.5
q23 -10.5 53 -30.5q24 -16 37 -22.5t27 -6.5q22 0 34.5 15t12.5 42h98q0 -78 -38.5 -126.5t-101.5 -48.5q-27 0 -50 10.5t-53 30.5q-24 16 -37 22.5t-27 6.5q-22 0 -34.5 -15.5t-12.5 -41.5h-98q0 79 38 127t102 48q27 0 50 -10.5z" />
    <glyph glyph-name="uni2219" unicode="&#x2219;" horiz-adv-x="371" 
d="M98 214v183h176v-183h-176z" />
    <glyph glyph-name="divide" unicode="&#xf7;" horiz-adv-x="566" 
d="M213 441v117h140v-117h-140zM59 252v129h448v-129h-448zM213 75v118h140v-118h-140z" />
    <glyph glyph-name="uni2215" unicode="&#x2215;" horiz-adv-x="503" 
d="M30 -89l298 834h124l-297 -834h-125z" />
    <glyph glyph-name="uni208C" unicode="&#x208c;" horiz-adv-x="412" 
d="M42 76v99h328v-99h-328zM42 -76v99h328v-99h-328z" />
    <glyph glyph-name="equalsuperior" unicode="&#x207c;" horiz-adv-x="412" 
d="M42 578v99h328v-99h-328zM42 426v99h328v-99h-328z" />
    <glyph glyph-name="greaterequal" unicode="&#x2265;" horiz-adv-x="566" 
d="M507 281l-448 -144v124l295 93v2l-295 94v124l448 -145v-148zM59 0v117h448v-117h-448z" />
    <glyph glyph-name="Delta" unicode="&#x2206;" horiz-adv-x="714" 
d="M1 0l245 712h224l243 -712h-712zM428 341q-44 149 -71 259h-2q-27 -110 -71 -259l-60 -200h265z" />
    <glyph glyph-name="infinity" unicode="&#x221e;" horiz-adv-x="706" 
d="M645 441q46 -50 46 -133t-46 -133t-123 -50q-55 0 -95.5 23.5t-73.5 64.5q-33 -41 -73.5 -64.5t-95.5 -23.5q-77 0 -123 50t-46 133t46 133t123 50q55 0 95.5 -23.5t73.5 -64.5q33 41 73.5 64.5t95.5 23.5q77 0 123 -50zM243 262.5q20 15.5 42 45.5q-22 30 -42 45.5
t-44 15.5q-27 0 -42.5 -16.5t-15.5 -44.5t15.5 -44.5t42.5 -16.5q24 0 44 15.5zM550 263.5q15 16.5 15 44.5t-15 44.5t-43 16.5q-24 0 -44 -15.5t-42 -45.5q22 -30 42 -45.5t44 -15.5q28 0 43 16.5z" />
    <glyph glyph-name="integral" unicode="&#x222b;" horiz-adv-x="372" 
d="M365 712v-114q-10 2 -23 2q-38 0 -56 -17.5t-18 -57.5v-543q0 -88 -47 -132t-136 -44q-42 0 -78 9v114q10 -2 23 -2q38 0 56 17.5t18 57.5v543q0 88 46.5 132t135.5 44q43 0 79 -9z" />
    <glyph glyph-name="lessequal" unicode="&#x2264;" horiz-adv-x="566" 
d="M212 356v-2l295 -93v-124l-448 144v148l448 145v-124zM507 0h-448v117h448v-117z" />
    <glyph glyph-name="logicalnot" unicode="&#xac;" horiz-adv-x="566" 
d="M378 126v213h-319v129h448v-342h-129z" />
    <glyph glyph-name="mu" unicode="&#xb5;" horiz-adv-x="626" 
d="M560 130.5q10 -13.5 33 -13.5q12 0 24 3v-115q-42 -14 -98 -14q-96 0 -120 75h-2q-14 -34 -43.5 -53t-66.5 -19q-38 0 -60 16v-195h-166v693h166v-291q0 -101 73 -101q39 0 61.5 31t22.5 94v267h166v-330q0 -34 10 -47.5z" />
    <glyph glyph-name="minus" unicode="&#x2212;" horiz-adv-x="566" 
d="M59 252v129h448v-129h-448z" />
    <glyph glyph-name="uni208B" unicode="&#x208b;" horiz-adv-x="412" 
d="M42 -3v105h328v-105h-328z" />
    <glyph glyph-name="uni207B" unicode="&#x207b;" horiz-adv-x="412" 
d="M42 499v105h328v-105h-328z" />
    <glyph glyph-name="multiply" unicode="&#xd7;" horiz-adv-x="566" 
d="M374 312l176 -175l-91 -92l-176 176l-175 -176l-91 92l175 175l-175 176l91 91l175 -175l176 175l91 -91z" />
    <glyph glyph-name="notequal" unicode="&#x2260;" horiz-adv-x="566" 
d="M318 277h189v-124h-256l-62 -113h-113l61 113h-78v124h146l42 79h-188v124h256l61 113h114l-62 -113h79v-124h-146z" />
    <glyph glyph-name="partialdiff" unicode="&#x2202;" horiz-adv-x="632" 
d="M501 638.5q70 -89.5 70 -259.5q0 -199 -77 -297t-204 -98q-124 0 -190.5 66t-66.5 177q0 72 29.5 129.5t85.5 90t133 32.5q78 0 124 -44h2q1 7 1 21q0 64 -30.5 104t-78.5 40q-66 0 -75 -69h-169q9 92 69.5 144.5t167.5 52.5q139 0 209 -89.5zM231.5 328
q-26.5 -38 -26.5 -101q0 -55 23 -85t67 -30q47 0 73.5 36.5t26.5 98.5q0 56 -24 87.5t-67 31.5q-46 0 -72.5 -38z" />
    <glyph glyph-name="perthousand" unicode="&#x2030;" horiz-adv-x="1117" 
d="M130 -30l402 734h102l-402 -734h-102zM296 647q40 -46 40 -131t-39.5 -131t-113.5 -46t-113.5 46t-39.5 131t40 131t113 46t113 -46zM138 516q0 -93 45 -93t45 93t-45 93t-45 -93zM696 289q40 -46 40 -131t-39.5 -131t-113.5 -46t-113.5 46t-39.5 131t40 131t113 46
t113 -46zM1047 289q40 -46 40 -131t-39.5 -131t-113.5 -46t-113.5 46t-39.5 131t40 131t113 46t113 -46zM549.5 227q-11.5 -24 -11.5 -69q0 -46 11.5 -69.5t33.5 -23.5q23 0 34.5 23.5t11.5 69.5q0 45 -12 69t-34 24t-33.5 -24zM889 158q0 -93 45 -93t45 93t-45 93t-45 -93z
" />
    <glyph glyph-name="uni208A" unicode="&#x208a;" horiz-adv-x="412" 
d="M370 102v-105h-110v-107h-108v107h-110v105h110v108h108v-108h110z" />
    <glyph glyph-name="plusminus" unicode="&#xb1;" horiz-adv-x="566" 
d="M507 433v-127h-160v-143h-128v143h-160v127h160v143h128v-143h160zM59 0v127h448v-127h-448z" />
    <glyph glyph-name="plussuperior" unicode="&#x207a;" horiz-adv-x="412" 
d="M370 604v-105h-110v-107h-108v107h-110v105h110v108h108v-108h110z" />
    <glyph glyph-name="product" unicode="&#x220f;" horiz-adv-x="702" 
d="M454 -120v685h-205v-685h-173v832h551v-832h-173z" />
    <glyph glyph-name="radical" unicode="&#x221a;" horiz-adv-x="674" 
d="M196 -120l-88 373h-83v133h195l89 -372h2l199 698h144l-238 -832h-220z" />
    <glyph glyph-name="summation" unicode="&#x2211;" horiz-adv-x="527" 
d="M223 564l161 -268l-161 -267h269v-149h-457v149l165 267l-165 268v148h457v-148h-269z" />
    <glyph glyph-name="lozenge" unicode="&#x25ca;" horiz-adv-x="668" 
d="M444 0h-221l-183 356l183 356h221l184 -356zM334 118l123 238l-123 238l-124 -238z" />
    <glyph glyph-name="uniF8FF" unicode="&#xf8ff;" horiz-adv-x="600" 
d="M597 740q37 -37 37 -100v-568q0 -63 -37 -100t-100 -37h-346q-63 0 -100 37t-37 100v568q0 63 37 100t100 37h346q63 0 100 -37zM101.5 690q-18.5 -18 -18.5 -50v-568q0 -31 18.5 -49.5t49.5 -18.5h346q32 0 50 18.5t18 49.5v568q0 32 -18 50t-50 18h-346
q-31 0 -49.5 -18zM460 606.5q49 -40.5 49 -111.5q0 -41 -14.5 -69.5t-55.5 -66.5q-40 -37 -52.5 -63t-12.5 -71h-111q-1 13 -1 38q0 49 12 77t51 68q29 29 38 46t9 39t-12.5 35t-34.5 13q-57 0 -57 -78h-135q1 89 51 136.5t141 47.5q86 0 135 -40.5zM251 65v119h136v-119
h-136z" />
    <glyph glyph-name="brokenbar" unicode="&#xa6;" horiz-adv-x="297" 
d="M77 382v350h142v-350h-142zM77 -205v350h142v-350h-142z" />
    <glyph glyph-name="paragraph" unicode="&#xb6;" horiz-adv-x="684" 
d="M576 602v-722h-119v722h-76v-722h-118v403h-18q-94 0 -149.5 58t-55.5 156t55.5 156.5t149.5 58.5h411v-110h-80z" />
    <glyph glyph-name="copyright" unicode="&#xa9;" horiz-adv-x="798" 
d="M588 681q82 -46 127 -130.5t45 -194.5t-45 -194.5t-127 -130.5t-189 -46t-189 46t-127 130.5t-45 194.5t45 194.5t127 130.5t189 46t189 -46zM242 625.5q-68 -38.5 -105 -108t-37 -161.5t37 -161.5t105 -108t157 -38.5t157 38.5t105.5 108t37.5 161.5t-37.5 161.5
t-105.5 108t-157 38.5t-157 -38.5zM538.5 536.5q51.5 -45.5 55.5 -123.5h-114q-2 36 -22.5 56.5t-56.5 20.5q-41 0 -65 -36t-24 -99q0 -61 23.5 -97t64.5 -36q35 0 56.5 21.5t25.5 58.5h115q-7 -82 -59.5 -127t-137.5 -45q-94 0 -148 60.5t-54 164.5q0 106 54 166.5
t149 60.5q86 0 137.5 -45.5z" />
    <glyph glyph-name="registered" unicode="&#xae;" horiz-adv-x="592" 
d="M428 696q57 -32 88 -90.5t31 -135.5t-31 -135.5t-88 -90.5t-132 -32t-132 32t-88 90.5t-31 135.5t31 135.5t88 90.5t132 32t132 -32zM184.5 662.5q-48.5 -27.5 -75 -77.5t-26.5 -115t26.5 -115t75 -77.5t111.5 -27.5t111.5 27.5t75 77.5t26.5 115t-26.5 115t-75 77.5
t-111.5 27.5t-111.5 -27.5zM390.5 607.5q27.5 -23.5 27.5 -65.5q0 -29 -15.5 -49.5t-43.5 -27.5v-2q16 -4 26.5 -17t21.5 -42l32 -86h-81l-26 73q-7 23 -19.5 32.5t-35.5 9.5h-29v-115h-77v313h138q54 0 81.5 -23.5zM248 490h40q28 0 41.5 11.5t13.5 31.5q0 18 -13.5 28.5
t-39.5 10.5h-42v-82z" />
    <glyph glyph-name="uni2117" unicode="&#x2117;" horiz-adv-x="798" 
d="M588 681q82 -46 127 -130.5t45 -194.5t-45 -194.5t-127 -130.5t-189 -46t-189 46t-127 130.5t-45 194.5t45 194.5t127 130.5t189 46t189 -46zM242 625.5q-68 -38.5 -105 -108t-37 -161.5t37 -161.5t105 -108t157 -38.5t157 38.5t105.5 108t37.5 161.5t-37.5 161.5
t-105.5 108t-157 38.5t-157 -38.5zM562 531.5q43 -39.5 43 -109.5t-43.5 -110t-128.5 -40h-73v-139h-110v438h183q86 0 129 -39.5zM360 363h58q74 0 74 59q0 28 -18.5 43.5t-56.5 15.5h-57v-118z" />
    <glyph glyph-name="section" unicode="&#xa7;" horiz-adv-x="656" 
d="M492 680.5q58 -47.5 64 -140.5h-161q-2 31 -19.5 48t-49.5 17q-26 0 -41.5 -12.5t-15.5 -33.5q0 -18 8.5 -29t30 -21t75.5 -30q70 -26 112 -48t69.5 -61.5t27.5 -100.5q0 -92 -83 -145v-2q49 -37 49 -109q0 -81 -62.5 -129t-166.5 -48q-111 0 -173 48t-66 142h164
q5 -66 72 -66q29 0 46.5 13t17.5 35q0 19 -10.5 31.5t-36.5 26t-88 38.5q-66 28 -104.5 51t-62.5 59t-24 92q0 46 22 82t62 60v2q-46 36 -46 102q0 81 62 128.5t162 47.5q108 0 166 -47.5zM213 328q0 -31 21 -52t84 -47q40 -16 97 -42q14 9 22.5 25t8.5 36q0 30 -21 51.5
t-80 45.5l-101 43q-31 -21 -31 -60z" />
    <glyph glyph-name="trademark" unicode="&#x2122;" horiz-adv-x="857" 
d="M220 618v-262h-112v262h-103v94h318v-94h-103zM720 356v161q0 85 2 128h-2q-18 -84 -28 -126l-38 -163h-131l-38 163l-9 42q-3 14 -8 35t-10 49h-2q2 -86 2 -128v-161h-99v356h169l34 -143q15 -62 26 -131h2q9 63 25 131l34 143h170v-356h-99z" />
    <glyph glyph-name="degree" unicode="&#xb0;" horiz-adv-x="348" 
d="M244.5 703q32.5 -19 51.5 -51.5t19 -70.5q0 -39 -19 -71t-51.5 -51t-70.5 -19t-71 19t-52 51t-19 71q0 38 19 70.5t52 51.5t71 19t70.5 -19zM129.5 625.5q-18.5 -18.5 -18.5 -44.5t18.5 -44.5t44.5 -18.5t44.5 18.5t18.5 44.5t-18.5 44.5t-44.5 18.5t-44.5 -18.5z" />
    <glyph glyph-name="estimated" unicode="&#x212e;" horiz-adv-x="863" 
d="M636.5 641q86.5 -49 132.5 -132t46 -181h-612q-6 0 -10 -4t-4 -9v-167q0 -16 3.5 -25.5t12.5 -18.5q93 -91 227 -91q72 0 135.5 30.5t103.5 79.5h69q-40 -56 -118 -95.5t-190 -39.5q-114 0 -201.5 45t-135.5 124t-48 180q0 100 46.5 180.5t134 126.5t204.5 46
q118 0 204.5 -49zM205 570q-9 -8 -12.5 -17t-3.5 -24v-167q0 -5 4 -8.5t10 -3.5h456q6 0 9.5 3.5t3.5 8.5v167q0 15 -3 24t-12 17q-95 94 -225 94q-133 0 -227 -94z" />
    <glyph glyph-name="uni2113" unicode="&#x2113;" horiz-adv-x="452" 
d="M252 123.5q15 -17.5 49 -17.5q23 0 46 7v-112q-41 -11 -88 -11q-95 0 -139.5 45t-44.5 141v10q-26 2 -47 6v84q23 -5 47 -6v188q0 88 18.5 139t55 72t95.5 21q75 0 120.5 -47.5t45.5 -150.5q0 -115 -45.5 -185.5t-127.5 -100.5v-26q0 -39 15 -56.5zM245.5 571.5
q-8.5 -19.5 -8.5 -73.5v-193q81 55 81 189q0 97 -44 97q-20 0 -28.5 -19.5z" />
    <glyph glyph-name="dagger" unicode="&#x2020;" horiz-adv-x="606" 
d="M549 547v-139h-163v-528h-166v528h-163v138h163v166h166v-165h163z" />
    <glyph glyph-name="daggerdbl" unicode="&#x2021;" horiz-adv-x="606" 
d="M549 547v-136h-163v-230h163v-136h-163v-165h-166v165h-163v136h163v230h-163v136h163v165h166v-165h163z" />
    <glyph glyph-name="interrobang" unicode="&#x203d;" horiz-adv-x="570" 
d="M493 583.5q42 -48.5 42 -120.5q0 -58 -22.5 -95t-83.5 -76q-50 -32 -66 -49.5t-16 -44.5h-140q-2 18 -2 25q0 34 7 55.5t26 41.5t57 48q41 30 53.5 48.5t12.5 46.5q0 30 -19.5 47.5t-54.5 17.5q-43 0 -65 -21.5t-23 -68.5h-171q1 85 43 137.5t120 71.5l-3 65h189l-4 -63
q78 -17 120 -65.5zM364 147v-147h-176v147h176z" />
    <glyph glyph-name="ampersand.smcp" horiz-adv-x="636" 
d="M423 37q-70 -49 -167 -49q-107 0 -163.5 43.5t-57.5 118.5q2 101 111 154q-33 33 -46 59t-13 59q0 64 49 103t129 39q81 0 130 -37t49 -97q0 -44 -25 -78.5t-78 -63.5l78 -74q16 26 16 80h141q-1 -101 -59 -173l127 -121h-182zM233 453.5q-12 -11.5 -13 -32.5
q0 -17 8.5 -31.5t31.5 -35.5q28 19 39 35t10 34q1 19 -11 30.5t-31 11.5q-22 0 -34 -11.5zM340 116l-114 107q-22 -14 -32 -30t-10 -37q1 -29 22 -46t59 -17q42 0 75 23z" />
    <glyph glyph-name="acute" unicode="&#xb4;" horiz-adv-x="369" 
d="M50 564l78 148h191l-141 -148h-128z" />
    <glyph glyph-name="breve" unicode="&#x2d8;" horiz-adv-x="456" 
d="M355.5 598.5q-46.5 -40.5 -127.5 -40.5t-127.5 40.5t-50.5 113.5h106q2 -28 20.5 -43t51.5 -15t51.5 15t20.5 43h106q-4 -73 -50.5 -113.5z" />
    <glyph glyph-name="caron" unicode="&#x2c7;" horiz-adv-x="492" 
d="M168 564l-118 148h138l58 -76l58 76h138l-118 -148h-156z" />
    <glyph glyph-name="cedilla" unicode="&#xb8;" horiz-adv-x="348" 
d="M211 -55q39 0 63 -21t24 -57q0 -43 -33.5 -71t-94.5 -28q-65 0 -120 32l26 53q44 -22 81 -22q21 0 32.5 8t11.5 23t-11.5 24t-32.5 9q-17 0 -31 -6l-29 27l51 84h67l-37 -60q15 5 33 5z" />
    <glyph glyph-name="circumflex" unicode="&#x2c6;" horiz-adv-x="492" 
d="M246 640l-58 -76h-138l118 148h156l118 -148h-138z" />
    <glyph glyph-name="dieresis" unicode="&#xa8;" horiz-adv-x="469" 
d="M50 581v131h143v-131h-143zM277 581v131h142v-131h-142z" />
    <glyph glyph-name="dotaccent" unicode="&#x2d9;" horiz-adv-x="266" 
d="M50 581v131h166v-131h-166z" />
    <glyph glyph-name="hungarumlaut" unicode="&#x2dd;" horiz-adv-x="569" 
d="M50 564l98 148h166l-141 -148h-123zM255 564l99 148h166l-141 -148h-124z" />
    <glyph glyph-name="macron" unicode="&#xaf;" horiz-adv-x="459" 
d="M50 589v103h359v-103h-359z" />
    <glyph glyph-name="ogonek" unicode="&#x2db;" horiz-adv-x="316" 
d="M212.5 -42q-14.5 -18 -14.5 -37q0 -30 33 -30q18 0 35 7v-82q-42 -15 -93 -15q-61 0 -92 24t-31 67q0 32 20.5 57.5t63.5 50.5h129q-36 -24 -50.5 -42z" />
    <glyph glyph-name="ring" unicode="&#x2da;" horiz-adv-x="328" 
d="M244.5 746.5q33.5 -33.5 33.5 -80.5t-33.5 -80t-80.5 -33t-80.5 33t-33.5 80t33.5 80.5t80.5 33.5t80.5 -33.5zM124.5 705.5q-16.5 -16.5 -16.5 -39.5t16.5 -39.5t39.5 -16.5t39.5 16.5t16.5 39.5t-16.5 39.5t-39.5 16.5t-39.5 -16.5z" />
    <glyph glyph-name="tilde" unicode="&#x2dc;" horiz-adv-x="490" 
d="M404 607q-32 -38 -89 -38q-23 0 -41.5 6.5t-41.5 18.5q-31 18 -51 18q-37 0 -42 -43h-89q3 67 35 105t89 38q23 0 39.5 -6t44.5 -19q31 -18 50 -18q20 0 30 10.5t13 32.5h89q-4 -67 -36 -105z" />
    <glyph glyph-name="acute.cap" horiz-adv-x="369" 
d="M50 760l78 151h191l-141 -151h-128z" />
    <glyph glyph-name="breve.cap" horiz-adv-x="456" 
d="M355.5 797.5q-46.5 -40.5 -127.5 -40.5t-127.5 40.5t-50.5 113.5h106q2 -28 20.5 -43t51.5 -15t51.5 15t20.5 43h106q-4 -73 -50.5 -113.5z" />
    <glyph glyph-name="caron.alt" horiz-adv-x="254" 
d="M50 534l24 178h130l-60 -178h-94z" />
    <glyph glyph-name="caron.cap" horiz-adv-x="492" 
d="M168 760l-120 151h138l60 -79l60 79h138l-120 -151h-156z" />
    <glyph glyph-name="caron.alt.case" horiz-adv-x="254" 
d="M50 483l24 229h130l-60 -229h-94z" />
    <glyph glyph-name="circumflex.cap" horiz-adv-x="492" 
d="M324 911l120 -151h-138l-60 79l-60 -79h-138l120 151h156z" />
    <glyph glyph-name="dieresis.cap" horiz-adv-x="469" 
d="M50 769v131h143v-131h-143zM277 769v131h142v-131h-142z" />
    <glyph glyph-name="dotaccent.cap" horiz-adv-x="266" 
d="M50 769v131h166v-131h-166z" />
    <glyph glyph-name="grave.cap" horiz-adv-x="369" 
d="M319 760h-128l-141 151h191z" />
    <glyph glyph-name="hungarumlaut.cap" horiz-adv-x="590" 
d="M50 760l98 151h166l-141 -151h-123zM255 760l99 151h166l-141 -151h-124z" />
    <glyph glyph-name="macron.cap" horiz-adv-x="459" 
d="M50 776v103h359v-103h-359z" />
    <glyph glyph-name="breve.narrow" horiz-adv-x="424" 
d="M329 598.5q-42 -40.5 -117 -40.5t-117 40t-45 114h100q5 -60 62 -60t62 60h100q-3 -73 -45 -113.5z" />
    <glyph glyph-name="circumflex.narrow" horiz-adv-x="462" 
d="M282 566l-51 71l-50 -71h-131l108 146h146l108 -146h-130z" />
    <glyph glyph-name="dieresis.narrow" horiz-adv-x="413" 
d="M50 581v131h133v-131h-133zM231 581v131h132v-131h-132z" />
    <glyph glyph-name="macron.narrow" horiz-adv-x="400" 
d="M50 592v103h300v-103h-300z" />
    <glyph glyph-name="tilde.narrow" horiz-adv-x="445" 
d="M362 606q-29 -38 -82 -38q-21 0 -36.5 6.5t-35.5 19.5q-15 10 -24.5 14.5t-20.5 4.5q-33 0 -36 -45h-77q3 68 32 106t81 38q21 0 36.5 -6.5t35.5 -19.5q14 -10 24 -14.5t21 -4.5q17 0 26 11t11 34h78q-4 -68 -33 -106z" />
    <glyph glyph-name="ring.cap" horiz-adv-x="328" 
d="M244.5 945.5q33.5 -33.5 33.5 -80.5t-33.5 -80t-80.5 -33t-80.5 33t-33.5 80t33.5 80.5t80.5 33.5t80.5 -33.5zM124.5 904.5q-16.5 -16.5 -16.5 -39.5t16.5 -39.5t39.5 -16.5t39.5 16.5t16.5 39.5t-16.5 39.5t-39.5 16.5t-39.5 -16.5z" />
    <glyph glyph-name="cedilla.ss01" horiz-adv-x="374" 
d="M50 -217l141 168h133l-98 -168h-176z" />
    <glyph glyph-name="tilde.cap" horiz-adv-x="490" 
d="M404 806q-32 -38 -89 -38q-23 0 -41.5 6.5t-41.5 18.5q-31 18 -51 18q-37 0 -42 -43h-89q3 67 35 105t89 38q23 0 39.5 -6t44.5 -19q31 -18 50 -18q20 0 30 10.5t13 32.5h89q-4 -67 -36 -105z" />
    <glyph glyph-name="commaaccent" unicode="&#x326;" horiz-adv-x="0" 
d="M113 -275h-63l46 109h-46v112h134v-112z" />
    <glyph glyph-name="uni0312" unicode="&#x312;" horiz-adv-x="0" 
d="M184 684v-112h-134v112l71 109h63l-46 -109h46z" />
    <glyph glyph-name="uni02BC" unicode="&#x2bc;" horiz-adv-x="266" 
d="M130 404h-83l59 152h-49v156h150v-156z" />
    <glyph glyph-name="uni02C9" unicode="&#x2c9;" horiz-adv-x="459" 
d="M50 589v103h359v-103h-359z" />
    <glyph glyph-name="uniFEFF" unicode="&#xfeff;" horiz-adv-x="0" 
 />
    <glyph glyph-name="uni20BC" unicode="&#x20bc;" horiz-adv-x="759" 
d="M102 532q66 78 200 89v91h155v-91q134 -11 200 -89t66 -231v-301h-155v293q0 93 -25.5 135t-85.5 48v-476h-155v476q-60 -6 -86 -48.5t-26 -134.5v-293h-154v301q0 153 66 231z" />
    <glyph glyph-name="bracketleftinferior" horiz-adv-x="273" 
d="M173 258v-444h85v-89h-212v624h213v-91h-86z" />
    <glyph glyph-name="bracketrightinferior" horiz-adv-x="273" 
d="M227 -275h-212v89h85v444h-86v91h213v-624z" />
    </font>
</defs>
</svg>
