<?xml version="1.0" standalone="no"?>
<!DOCTYPE svg PUBLIC "-//W3C//DTD SVG 1.1//EN" "http://www.w3.org/Graphics/SVG/1.1/DTD/svg11.dtd" >
<svg>
<metadata>
Created by FontForge 20090622 at Thu Sep 20 09:23:52 2018
 By deploy user
Copyright &#194;&#169; 2015 Monotype Imaging Inc.  All rights reserved.
</metadata>
<defs>
<font id="NeueHaasUnicaPro-Regular" horiz-adv-x="576" >
  <font-face 
    font-family="Neue Haas Unica Pro"
    font-weight="400"
    font-variant="small-caps"
    font-stretch="normal"
    units-per-em="1000"
    panose-1="2 11 5 4 3 2 6 2 2 3"
    ascent="764"
    descent="-236"
    x-height="508"
    cap-height="712"
    bbox="-156 -275 984 953"
    underline-thickness="50"
    underline-position="-75"
    unicode-range="U+0020-U+FEFF"
  />
<missing-glyph horiz-adv-x="623" 
d="M568 742q35 -35 35 -96v-580q0 -61 -35 -96t-96 -35h-321q-60 0 -95.5 35t-35.5 96v580q0 61 35.5 96t95.5 35h321q61 0 96 -35zM91 706q-22 -22 -22 -60v-580q0 -38 22 -60t60 -22h321q38 0 60 22t22 60v580q0 38 -22 60t-60 22h-321q-38 0 -60 -22zM433 606
q47 -40 47 -107q0 -42 -16 -71t-64 -72q-30 -26 -44 -45t-19 -43t-5 -66h-72v27q0 60 14.5 92t61.5 76q36 34 46.5 53.5t10.5 47.5q0 35 -22.5 55.5t-61.5 20.5q-89 0 -94 -98h-84q4 83 50 126.5t128 43.5q77 0 124 -40zM249 65v91h94v-91h-94z" />
    <glyph glyph-name="f_f" unicode="ff" horiz-adv-x="578" 
d="M480 627q-18 -20 -18 -66v-53h101v-70h-101v-438h-87v438h-186v-438h-87v438h-89v70h89v63q0 73 35.5 109.5t103.5 36.5q31 0 51 -5v-68q-9 3 -29 3q-38 0 -56 -20t-18 -66v-53h186v63q0 73 35.5 109.5t103.5 36.5q29 0 51 -5v-68q-10 3 -29 3q-38 0 -56 -20z" />
    <glyph glyph-name="f_f_i" unicode="ffi" horiz-adv-x="822" 
d="M410.5 680.5q35.5 36.5 103.5 36.5q29 0 51 -5v-68q-10 3 -29 3q-38 0 -56 -20t-18 -66v-53h101v-70h-101v-438h-87v438h-186v-438h-87v438h-89v70h89v63q0 73 35.5 109.5t103.5 36.5q31 0 51 -5v-68q-9 3 -29 3q-38 0 -56 -20t-18 -66v-53h186v63q0 73 35.5 109.5z
M744 613h-88v99h88v-99zM744 508v-508h-88v508h88z" />
    <glyph glyph-name="f_f_l" unicode="ffl" horiz-adv-x="822" 
d="M480 627q-18 -20 -18 -66v-53h101v-70h-101v-438h-87v438h-186v-438h-87v438h-89v70h89v63q0 73 35.5 109.5t103.5 36.5q31 0 51 -5v-68q-9 3 -29 3q-38 0 -56 -20t-18 -66v-53h186v63q0 73 35.5 109.5t103.5 36.5q29 0 51 -5v-68q-10 3 -29 3q-38 0 -56 -20zM656 0v712
h88v-712h-88z" />
    <glyph glyph-name="f_i" unicode="fi" horiz-adv-x="549" 
d="M137.5 680.5q35.5 36.5 103.5 36.5q31 0 51 -5v-68q-9 3 -29 3q-38 0 -56 -20t-18 -66v-53h101v-70h-101v-438h-87v438h-89v70h89v63q0 73 35.5 109.5zM471 613h-88v99h88v-99zM471 508v-508h-88v508h88z" />
    <glyph glyph-name="f_l" unicode="fl" horiz-adv-x="549" 
d="M207 627q-18 -20 -18 -66v-53h101v-70h-101v-438h-87v438h-89v70h89v63q0 73 35.5 109.5t103.5 36.5q31 0 51 -5v-68q-9 3 -29 3q-38 0 -56 -20zM383 0v712h88v-712h-88z" />
    <glyph glyph-name=".notdef" horiz-adv-x="623" 
d="M568 742q35 -35 35 -96v-580q0 -61 -35 -96t-96 -35h-321q-60 0 -95.5 35t-35.5 96v580q0 61 35.5 96t95.5 35h321q61 0 96 -35zM91 706q-22 -22 -22 -60v-580q0 -38 22 -60t60 -22h321q38 0 60 22t22 60v580q0 38 -22 60t-60 22h-321q-38 0 -60 -22zM433 606
q47 -40 47 -107q0 -42 -16 -71t-64 -72q-30 -26 -44 -45t-19 -43t-5 -66h-72v27q0 60 14.5 92t61.5 76q36 34 46.5 53.5t10.5 47.5q0 35 -22.5 55.5t-61.5 20.5q-89 0 -94 -98h-84q4 83 50 126.5t128 43.5q77 0 124 -40zM249 65v91h94v-91h-94z" />
    <glyph glyph-name="NULL" horiz-adv-x="600" 
 />
    <glyph glyph-name="NULL" horiz-adv-x="600" 
 />
    <glyph glyph-name="space" unicode=" " horiz-adv-x="230" 
 />
    <glyph glyph-name="exclam" unicode="!" horiz-adv-x="275" 
d="M102 175l-21 537h113l-21 -537h-71zM86 0v106h104v-106h-104z" />
    <glyph glyph-name="quotedbl" unicode="&#x22;" horiz-adv-x="372" 
d="M79 449l-11 263h86l-11 -263h-64zM229 449l-11 263h86l-11 -263h-64z" />
    <glyph glyph-name="numbersign" unicode="#" horiz-adv-x="649" 
d="M460 256h118l-11 -65h-118l-30 -191h-76l30 191h-144l-30 -191h-76l30 191h-118l10 65h119l26 164h-119l10 66h119l30 188h76l-30 -188h144l30 188h76l-30 -188h118l-11 -66h-117zM266 420l-26 -164h144l26 164h-144z" />
    <glyph glyph-name="dollar" unicode="$" horiz-adv-x="562" 
d="M464 46.5q-56 -51.5 -152 -59.5v-86h-62v86q-100 8 -153.5 67.5t-54.5 165.5h89q0 -141 119 -158v248q-61 18 -101.5 38t-67.5 57.5t-27 98.5q0 79 52 127.5t144 55.5v77h62v-77q95 -8 144.5 -63.5t49.5 -157.5h-89q0 68 -26 103.5t-79 43.5v-229q69 -19 110.5 -38.5
t69.5 -59t28 -106.5q0 -82 -56 -133.5zM169 440q25 -23 81 -39v213q-106 -11 -106 -105q0 -46 25 -69zM400 97q30 30 30 80q0 49 -28 73t-90 43v-232q58 6 88 36z" />
    <glyph glyph-name="percent" unicode="%" horiz-adv-x="864" 
d="M209 -30l378 734h68l-378 -734h-68zM311.5 638.5q39.5 -49.5 39.5 -140.5t-39.5 -140.5t-113.5 -49.5t-113.5 49.5t-39.5 140.5t39.5 140.5t113.5 49.5t113.5 -49.5zM143 593q-19 -33 -19 -95q0 -63 19 -95.5t55 -32.5t55 32.5t19 95.5q0 62 -19 95t-55 33t-55 -33z
M779.5 316.5q39.5 -49.5 39.5 -140.5t-39.5 -140.5t-113.5 -49.5t-113.5 49.5t-39.5 140.5t39.5 140.5t113.5 49.5t113.5 -49.5zM611 271q-19 -33 -19 -95q0 -63 19 -95.5t55 -32.5t55 32.5t19 95.5q0 62 -19 95t-55 33t-55 -33z" />
    <glyph glyph-name="ampersand" unicode="&#x26;" horiz-adv-x="734" 
d="M527 80q-41 -45 -100 -70t-125 -25q-75 0 -131.5 26t-86.5 72t-30 106q0 69 38.5 121.5t119.5 91.5q-48 50 -65 84.5t-17 81.5q0 70 49 114t128 44q80 0 127.5 -43t47.5 -112q0 -60 -30.5 -103t-104.5 -84l176 -177q44 77 44 192h90q-1 -74 -19 -139t-53 -115l144 -145
h-123zM241 627.5q-24 -22.5 -24 -62.5q0 -32 15.5 -58.5t61.5 -72.5q58 31 80 62.5t22 69.5t-24 61t-65 23q-42 0 -66 -22.5zM471 136l-207 210q-64 -33 -89.5 -68.5t-25.5 -84.5q0 -56 43.5 -92.5t115.5 -36.5q94 0 163 72z" />
    <glyph glyph-name="quotesingle" unicode="'" horiz-adv-x="222" 
d="M79 449l-11 263h86l-11 -263h-64z" />
    <glyph glyph-name="parenleft" unicode="(" horiz-adv-x="292" 
d="M174.5 526q-27.5 -105 -27.5 -229q0 -123 27.5 -228.5t87.5 -215.5h-76q-69 102 -102 208.5t-33 235.5t33 236t102 208h76q-60 -110 -87.5 -215z" />
    <glyph glyph-name="parenright" unicode=")" horiz-adv-x="292" 
d="M208.5 533q33.5 -107 33.5 -236q0 -128 -33.5 -235t-101.5 -209h-77q60 110 87.5 215.5t27.5 228.5q0 124 -27.5 229t-87.5 215h77q68 -101 101.5 -208z" />
    <glyph glyph-name="asterisk" unicode="*" horiz-adv-x="407" 
d="M351 632l25 -76l-133 -24l91 -99l-64 -48l-66 121l-66 -121l-65 48l91 99l-133 24l25 76l124 -57l-16 137h79l-16 -137z" />
    <glyph glyph-name="plus" unicode="+" horiz-adv-x="566" 
d="M495 353v-73h-176v-175h-72v175h-176v73h176v176h72v-176h176z" />
    <glyph glyph-name="comma" unicode="," horiz-adv-x="226" 
d="M115 -144h-58l38 144h-36v117h108v-117z" />
    <glyph glyph-name="hyphen" unicode="-" horiz-adv-x="300" 
d="M30 253v78h240v-78h-240z" />
    <glyph glyph-name="period" unicode="." horiz-adv-x="226" 
d="M59 0v117h108v-117h-108z" />
    <glyph glyph-name="slash" unicode="/" horiz-adv-x="457" 
d="M30 -89l297 834h79l-297 -834h-79z" />
    <glyph glyph-name="zero" unicode="0" horiz-adv-x="562" 
d="M462 597.5q63 -90.5 63 -260.5t-63 -260.5t-181 -90.5t-181 90.5t-63 260.5t63 260.5t181 90.5t181 -90.5zM171 538q-38 -69 -38 -201q0 -133 38 -202.5t110 -69.5q73 0 111 69.5t38 202.5q0 132 -38 201t-111 69q-72 0 -110 -69z" />
    <glyph glyph-name="one" unicode="1" horiz-adv-x="562" 
d="M256 0v491h-151v70q79 0 116.5 26t47.5 87h78v-674h-91z" />
    <glyph glyph-name="two" unicode="2" horiz-adv-x="562" 
d="M393.5 664.5q48.5 -23.5 75.5 -66t27 -98.5t-22.5 -97t-61 -71.5t-101.5 -67.5q-66 -38 -101 -68t-48 -56.5t-14 -60.5h364v-79h-465q-1 7 -1 20q0 68 15.5 115.5t58.5 91t125 91.5q59 35 90 58.5t48 52.5t17 69q0 49 -32.5 79.5t-87.5 30.5q-123 0 -131 -132h-94
q4 100 64.5 156t161.5 56q64 0 112.5 -23.5z" />
    <glyph glyph-name="three" unicode="3" horiz-adv-x="562" 
d="M438.5 638q59.5 -50 59.5 -134q0 -59 -28.5 -97t-88.5 -60v-2q66 -22 97 -62.5t31 -105.5q0 -56 -29 -99.5t-81.5 -67.5t-120.5 -24q-111 0 -172 57t-61 160h93q0 -67 36 -102.5t104 -35.5q61 0 99 32t38 83q0 59 -41 90.5t-119 31.5h-27v77h27q69 0 109.5 31.5
t40.5 85.5q0 51 -36 82t-96 31q-62 0 -95.5 -33.5t-33.5 -100.5h-93q0 100 60.5 156.5t165.5 56.5q102 0 161.5 -50z" />
    <glyph glyph-name="four" unicode="4" horiz-adv-x="562" 
d="M428 174v-174h-91v174h-318v83l286 417h123v-424h110v-76h-110zM338 250v92q0 125 3 251h-2l-155 -232l-77 -111h231z" />
    <glyph glyph-name="five" unicode="5" horiz-adv-x="562" 
d="M173 596l-20 -209h2q23 27 59 41.5t77 14.5q65 0 114.5 -27.5t76.5 -77.5t27 -117q0 -71 -29 -124t-82.5 -82t-124.5 -29q-100 0 -159.5 52t-59.5 141h94q1 -53 35.5 -83t89.5 -30q65 0 103 40.5t38 111.5q0 69 -36.5 108t-99.5 39q-50 0 -83 -24.5t-45 -70.5l-91 6
l37 398h382v-78h-305z" />
    <glyph glyph-name="six" unicode="6" horiz-adv-x="562" 
d="M445 638.5q55 -49.5 63 -137.5h-94q-18 107 -117 107q-73 0 -115.5 -63t-45.5 -192h2q59 86 166 86q63 0 111.5 -27.5t75 -78t26.5 -115.5q0 -68 -29 -121t-81 -82t-120 -29q-116 0 -177 82t-61 243q0 183 65.5 280t185.5 97q90 0 145 -49.5zM189.5 322.5
q-37.5 -41.5 -37.5 -106.5q0 -69 36.5 -109.5t98.5 -40.5q61 0 98 41t37 109q0 66 -36.5 107t-97.5 41t-98.5 -41.5z" />
    <glyph glyph-name="seven" unicode="7" horiz-adv-x="562" 
d="M366.5 326q-62.5 -151 -97.5 -326h-101q43 189 108 339t140 255h-373v80h466v-81q-80 -116 -142.5 -267z" />
    <glyph glyph-name="eight" unicode="8" horiz-adv-x="562" 
d="M396 664.5q51 -23.5 79.5 -65.5t28.5 -96t-31.5 -93t-86.5 -60v-2q63 -19 97 -61.5t34 -104.5q0 -58 -29.5 -102.5t-83.5 -69t-123 -24.5t-122.5 24.5t-83 69t-29.5 102.5q0 62 34 104.5t96 61.5v2q-55 21 -86 60.5t-31 92.5q0 54 28.5 96t79 65.5t114.5 23.5t115 -23.5z
M186 579q-36 -30 -36 -79q0 -52 35.5 -83t95.5 -31t95.5 31t35.5 83q0 49 -36 79t-95 30t-95 -30zM178.5 274.5q-39.5 -33.5 -39.5 -86.5q0 -55 39 -88.5t103 -33.5t103 33.5t39 88.5q0 53 -39.5 86.5t-102.5 33.5t-102.5 -33.5z" />
    <glyph glyph-name="nine" unicode="9" horiz-adv-x="562" 
d="M110 35.5q-55 49.5 -63 137.5h94q18 -107 117 -107q73 0 115.5 63t45.5 192h-2q-59 -86 -166 -86q-63 0 -111.5 27.5t-75 78t-26.5 115.5q0 68 29 121t81 82t120 29q116 0 177 -82t61 -243q0 -183 -65.5 -280t-185.5 -97q-90 0 -145 49.5zM365.5 351.5
q37.5 41.5 37.5 106.5q0 69 -36.5 109.5t-98.5 40.5q-61 0 -98 -41t-37 -109q0 -66 36.5 -107t97.5 -41t98.5 41.5z" />
    <glyph glyph-name="colon" unicode=":" horiz-adv-x="226" 
d="M59 0v117h108v-117h-108zM59 391v117h108v-117h-108z" />
    <glyph glyph-name="semicolon" unicode=";" horiz-adv-x="226" 
d="M115 -144h-58l38 144h-36v117h108v-117zM59 391v117h108v-117h-108z" />
    <glyph glyph-name="less" unicode="&#x3c;" horiz-adv-x="566" 
d="M153 318v-2l342 -142v-80l-424 178v90l424 178v-80z" />
    <glyph glyph-name="equal" unicode="=" horiz-adv-x="566" 
d="M71 362v74h424v-74h-424zM71 197v74h424v-74h-424z" />
    <glyph glyph-name="greater" unicode="&#x3e;" horiz-adv-x="566" 
d="M495 272l-424 -178v80l342 142v2l-342 142v80l424 -178v-90z" />
    <glyph glyph-name="question" unicode="?" horiz-adv-x="516" 
d="M374 703.5q49 -22.5 76 -63.5t27 -95q0 -37 -8.5 -63t-31 -53.5t-66.5 -64.5q-40 -33 -58.5 -57t-25.5 -55t-7 -87h-78v30q0 53 8 86.5t29 62t64 65.5q35 30 52 51t22.5 39t5.5 44q0 47 -33 75t-90 28q-63 0 -97 -32.5t-38 -96.5h-92q5 102 64 155.5t163 53.5
q65 0 114 -22.5zM189 0v106h104v-106h-104z" />
    <glyph glyph-name="at" unicode="@" horiz-adv-x="868" 
d="M642 647.5q85 -45.5 131 -128t46 -192.5q0 -83 -25.5 -139.5t-68.5 -84.5t-95 -28q-94 0 -111 90h-2q-43 -90 -137 -90q-69 0 -108 50t-40 144q1 73 25.5 129.5t67 88t96.5 31.5q86 0 116 -79h2q6 39 13 69h76q-18 -84 -30 -168t-12 -125q0 -39 14 -56.5t42 -17.5
q47 0 79 47.5t32 138.5t-38 159.5t-108 106t-163 37.5q-103 0 -177.5 -46.5t-113 -127t-38.5 -180.5q0 -99 38.5 -171t109.5 -110t166 -38q128 0 220 56l30 -56q-104 -63 -250 -63q-115 0 -201 46t-133 132t-47 204q0 116 47.5 211t137.5 150.5t211 55.5q113 0 198 -45.5z
M347.5 399.5q-33.5 -48.5 -33.5 -129.5q0 -60 23 -92t64 -32q49 0 82.5 49t33.5 143q0 52 -22 81t-62 29q-52 0 -85.5 -48.5z" />
    <glyph glyph-name="A" unicode="A" horiz-adv-x="675" 
d="M181 212l-78 -212h-98l270 712h125l271 -712h-99l-77 212h-314zM442 358l-103 290h-2l-103 -290l-24 -65h255z" />
    <glyph glyph-name="B" unicode="B" horiz-adv-x="627" 
d="M506.5 663.5q60.5 -48.5 60.5 -132.5q0 -60 -30 -102.5t-88 -63.5v-2q64 -15 99 -58.5t35 -108.5q0 -90 -63 -143t-174 -53h-251v712h232q119 0 179.5 -48.5zM187 401h133q156 0 156 117q0 58 -36.5 87t-115.5 29h-137v-233zM187 78h146q155 0 155 123t-168 123h-133
v-246z" />
    <glyph glyph-name="C" unicode="C" horiz-adv-x="689" 
d="M501.5 693.5q62.5 -32.5 97.5 -90.5t39 -132h-95q-7 79 -57.5 125t-130.5 46q-101 0 -158.5 -76.5t-57.5 -209.5t57 -209.5t156 -76.5q79 0 131 47t63 128h96q-11 -120 -88 -189.5t-202 -69.5q-95 0 -164.5 44.5t-107 128t-37.5 197.5t37.5 197.5t108 128t166.5 44.5
q84 0 146.5 -32.5z" />
    <glyph glyph-name="D" unicode="D" horiz-adv-x="723" 
d="M585 619.5q96 -92.5 96 -263.5t-96 -263.5t-273 -92.5h-217v712h217q177 0 273 -92.5zM187 82h124q133 0 203 70t70 204t-70 204t-203 70h-124v-548z" />
    <glyph glyph-name="E" unicode="E" horiz-adv-x="618" 
d="M187 630v-225h346v-81h-346v-242h378v-82h-470v712h459v-82h-367z" />
    <glyph glyph-name="F" unicode="F" horiz-adv-x="573" 
d="M187 630v-243h332v-82h-332v-305h-92v712h446v-82h-354z" />
    <glyph glyph-name="G" unicode="G" horiz-adv-x="731" 
d="M562.5 664.5q75.5 -61.5 85.5 -166.5h-98q-12 69 -60 106.5t-125 37.5q-105 0 -165.5 -77t-60.5 -211q0 -135 58.5 -211.5t160.5 -76.5q92 0 146.5 56.5t55.5 176.5h-196v79h284v-378h-82v98h-2q-29 -51 -89 -81t-135 -30q-90 0 -157.5 44t-103.5 127t-36 196
q0 115 39 198.5t111.5 128.5t171.5 45q122 0 197.5 -61.5z" />
    <glyph glyph-name="H" unicode="H" horiz-adv-x="737" 
d="M550 0v329h-363v-329h-92v712h92v-302h363v302h93v-712h-93z" />
    <glyph glyph-name="I" unicode="I" horiz-adv-x="282" 
d="M95 0v712h92v-712h-92z" />
    <glyph glyph-name="J" unicode="J" horiz-adv-x="356" 
d="M65 -5q-30 0 -50 6v82q27 -5 43 -5q59 0 87.5 32t28.5 106v496h92v-508q0 -209 -201 -209z" />
    <glyph glyph-name="K" unicode="K" horiz-adv-x="625" 
d="M621 0h-123l-309 350h-2v-350h-92v712h92v-321h2l287 321h116l-311 -339z" />
    <glyph glyph-name="L" unicode="L" horiz-adv-x="561" 
d="M551 82v-82h-456v712h92v-630h364z" />
    <glyph glyph-name="M" unicode="M" horiz-adv-x="934" 
d="M749 0v362q0 90 2 272h-2l-84 -236l-13 -36l-132 -362h-106l-132 362l-13 36l-84 236h-2q2 -182 2 -272v-362h-90v712h148l129 -351l94 -273h2l94 273l128 351h149v-712h-90z" />
    <glyph glyph-name="N" unicode="N" horiz-adv-x="755" 
d="M525 0l-169 307l-172 319h-2q3 -171 3 -341v-285h-90v712h135l170 -307l172 -319h2q-3 171 -3 341v285h90v-712h-136z" />
    <glyph glyph-name="O" unicode="O" horiz-adv-x="732" 
d="M537 681q73 -45 112.5 -128.5t39.5 -196.5t-39.5 -196.5t-112.5 -128.5t-171 -45t-171 45t-112.5 128.5t-39.5 196.5t39.5 196.5t112.5 128.5t171 45t171 -45zM245.5 607q-51.5 -35 -79 -99.5t-27.5 -151.5t27.5 -151.5t79 -99.5t120.5 -35t120.5 35t79 99.5t27.5 151.5
t-27.5 151.5t-79 99.5t-120.5 35t-120.5 -35z" />
    <glyph glyph-name="P" unicode="P" horiz-adv-x="616" 
d="M524 654.5q64 -57.5 64 -157.5t-64 -157.5t-185 -57.5h-152v-282h-92v712h244q121 0 185 -57.5zM187 362h145q80 0 120.5 35.5t40.5 99.5t-40.5 99.5t-120.5 35.5h-145v-270z" />
    <glyph glyph-name="Q" unicode="Q" horiz-adv-x="731" 
d="M665.5 202q-22.5 -69 -64.5 -117l79 -87l-56 -53l-81 89q-76 -48 -175 -48t-172.5 45t-113 128.5t-39.5 196.5t39.5 196.5t113 128.5t172.5 45q98 0 170 -45t111 -128.5t39 -196.5q0 -85 -22.5 -154zM483 99l-94 103l57 52l93 -102q55 79 55 203q0 87 -27.5 152
t-78.5 100t-119 35q-70 0 -122 -35t-80 -100t-28 -152t28 -152.5t80 -100.5t122 -35q65 0 114 32z" />
    <glyph glyph-name="R" unicode="R" horiz-adv-x="640" 
d="M509 662q62 -50 62 -143q0 -68 -37 -116t-99 -62v-2q39 -12 61 -40t46 -94l73 -205h-100l-65 188q-22 64 -51.5 88t-86.5 24h-125v-300h-92v712h226q126 0 188 -50zM187 378h133q80 0 118.5 36.5t38.5 97.5q0 121 -163 121h-127v-255z" />
    <glyph glyph-name="S" unicode="S" horiz-adv-x="609" 
d="M479 667q64 -59 64 -175h-93q0 78 -41.5 116.5t-121.5 38.5q-66 0 -103.5 -30t-37.5 -81q0 -37 18 -59.5t53.5 -37t100.5 -30.5q82 -20 131.5 -41t80 -62t30.5 -110q0 -63 -31.5 -110.5t-89 -73.5t-134.5 -26q-126 0 -196 64t-70 186h95q0 -86 45 -128.5t127 -42.5
q76 0 117.5 33t41.5 93q0 38 -18.5 61t-54 36.5t-101.5 30.5q-82 20 -131 41.5t-78.5 61.5t-29.5 108q0 57 29 101.5t82.5 69.5t124.5 25q127 0 191 -59z" />
    <glyph glyph-name="T" unicode="T" horiz-adv-x="599" 
d="M346 630v-630h-93v630h-243v82h579v-82h-243z" />
    <glyph glyph-name="U" unicode="U" horiz-adv-x="705" 
d="M549 58q-68 -72 -196 -72q-129 0 -196.5 71.5t-67.5 209.5v445h92v-443q0 -98 45 -148.5t127 -50.5t126.5 50.5t44.5 148.5v443h93v-445q0 -137 -68 -209z" />
    <glyph glyph-name="V" unicode="V" horiz-adv-x="624" 
d="M252 0l-245 712h96l109 -317q35 -101 99 -305h2q54 174 100 305l108 317h97l-246 -712h-120z" />
    <glyph glyph-name="W" unicode="W" horiz-adv-x="916" 
d="M608 0l-75 311q-41 169 -74 319h-2q-33 -150 -74 -319l-75 -311h-132l-166 712h92l67 -288l67 -303l7 -32h2q45 202 79 336l70 287h128l70 -287q34 -134 79 -336h2q31 151 74 335l67 288h92l-166 -712h-132z" />
    <glyph glyph-name="X" unicode="X" horiz-adv-x="621" 
d="M614 0h-110l-192 293h-2l-192 -293h-111l247 365l-233 347h108l181 -277h2l180 277h108l-233 -347z" />
    <glyph glyph-name="Y" unicode="Y" horiz-adv-x="614" 
d="M353 0h-92v295l-257 417h107l87 -147l108 -188h2l108 188l88 147h106l-257 -417v-295z" />
    <glyph glyph-name="Z" unicode="Z" horiz-adv-x="566" 
d="M126 83v-2h422v-81h-530v88l403 541v2h-392v81h500v-88z" />
    <glyph glyph-name="bracketleft" unicode="[" horiz-adv-x="297" 
d="M161 682v-771h118v-59h-203v889h203v-59h-118z" />
    <glyph glyph-name="backslash" unicode="\" horiz-adv-x="457" 
d="M427 -89h-79l-297 834h79z" />
    <glyph glyph-name="bracketright" unicode="]" horiz-adv-x="297" 
d="M221 -148h-203v59h118v771h-118v59h203v-889z" />
    <glyph glyph-name="asciicircum" unicode="^" horiz-adv-x="449" 
d="M356 371l-130 270h-2l-130 -270h-83l166 341h95l166 -341h-82z" />
    <glyph glyph-name="underscore" unicode="_" horiz-adv-x="500" 
d="M0 -101v51h500v-51h-500z" />
    <glyph glyph-name="grave" unicode="`" horiz-adv-x="299" 
d="M249 569h-76l-123 143h113z" />
    <glyph glyph-name="a" unicode="a" horiz-adv-x="531" 
d="M406.5 472.5q52.5 -49.5 52.5 -147.5v-195q0 -77 12 -130h-80q-7 32 -7 74h-2q-27 -41 -71 -63t-105 -22q-78 0 -125 41.5t-47 107.5t43.5 104.5t149.5 55.5q74 12 147 17v20q0 61 -30.5 90t-84.5 29t-84 -27.5t-32 -73.5h-88q4 75 57 122t147 47q95 0 147.5 -49.5z
M241 232q-64 -10 -90.5 -30t-26.5 -58q0 -40 27.5 -63.5t76.5 -23.5q31 0 58.5 10.5t46.5 29.5q23 24 32 49.5t9 70.5v31q-77 -6 -133 -16z" />
    <glyph glyph-name="b" unicode="b" 
d="M168 438q21 38 62.5 60.5t92.5 22.5q64 0 112 -32.5t74 -93t26 -140.5t-26 -140.5t-74.5 -93.5t-112.5 -33q-51 0 -93 23t-62 63h-2v-74h-87v712h88v-274h2zM199.5 397.5q-37.5 -52.5 -37.5 -142.5t37.5 -143t100.5 -53q65 0 104 53.5t39 142.5t-39 142t-104 53
q-63 0 -100.5 -52.5z" />
    <glyph glyph-name="c" unicode="c" horiz-adv-x="534" 
d="M387.5 497.5q47.5 -24.5 76 -68.5t33.5 -101h-92q-5 54 -39.5 88t-86.5 34q-67 0 -106 -52.5t-39 -143.5t38.5 -143.5t106.5 -52.5q52 0 86.5 36.5t39.5 92.5h92q-5 -58 -33 -103.5t-75.5 -71.5t-108.5 -26q-73 0 -127 32.5t-83 93t-29 142.5t29 142.5t83 93t127 32.5
q60 0 107.5 -24.5z" />
    <glyph glyph-name="d" unicode="d" 
d="M412 0v74h-2q-21 -40 -62.5 -63t-93.5 -23q-64 0 -112.5 33t-74.5 93.5t-26 140.5t26 140.5t74 93t112 32.5q51 0 92.5 -22.5t62.5 -60.5h2v274h88v-712h-86zM172 397q-39 -53 -39 -142t39 -142.5t104 -53.5q63 0 101 53t38 143t-38 142.5t-101 52.5q-65 0 -104 -53z" />
    <glyph glyph-name="e" unicode="e" horiz-adv-x="550" 
d="M369.5 81q35.5 27 44.5 71h90q-14 -71 -72.5 -118.5t-151.5 -47.5q-74 0 -128 34t-82.5 96t-28.5 145q0 75 28.5 134.5t82 93t125.5 33.5q85 0 143.5 -47t78.5 -130q10 -41 10 -109h-380q3 -90 44.5 -136t106.5 -46q54 0 89.5 27zM176 414.5q-39 -39.5 -46 -111.5h292
q-7 73 -46 112t-99 39q-62 0 -101 -39.5z" />
    <glyph glyph-name="f" unicode="f" horiz-adv-x="305" 
d="M207 627q-18 -20 -18 -66v-53h101v-70h-101v-438h-87v438h-89v70h89v63q0 73 35.5 109.5t103.5 36.5q31 0 51 -5v-68q-9 3 -29 3q-38 0 -56 -20z" />
    <glyph glyph-name="g" unicode="g" horiz-adv-x="573" 
d="M408 434h2v74h85v-477q0 -111 -57 -167.5t-165 -56.5q-97 0 -152.5 43t-57.5 118h88q2 -44 34.5 -68.5t88.5 -24.5q69 0 102 38t33 122v55h-2q-55 -85 -151 -85q-65 0 -113.5 32t-75 90.5t-26.5 135.5q0 78 26.5 136.5t75 90t113.5 31.5q100 0 152 -87zM170.5 397.5
q-37.5 -50.5 -37.5 -134.5q0 -83 37.5 -133.5t99.5 -50.5q66 0 104 49.5t38 134.5q0 86 -38 135.5t-104 49.5q-62 0 -99.5 -50.5z" />
    <glyph glyph-name="h" unicode="h" 
d="M168 444q25 37 65 56t86 19q88 0 136 -53t48 -156v-310h-88v303q0 77 -30 110.5t-87 33.5t-94.5 -41t-37.5 -115v-291h-88v712h88v-268h2z" />
    <glyph glyph-name="i" unicode="i" horiz-adv-x="244" 
d="M78 0v508h88v-508h-88zM78 613v99h88v-99h-88z" />
    <glyph glyph-name="j" unicode="j" horiz-adv-x="249" 
d="M132.5 -150.5q-38.5 -38.5 -107.5 -38.5q-28 0 -47 5v70q15 -3 29 -3q39 0 57.5 21.5t18.5 74.5v529h88v-537q0 -83 -38.5 -121.5zM83 613v99h88v-99h-88z" />
    <glyph glyph-name="k" unicode="k" horiz-adv-x="500" 
d="M393 0l-225 254h-2v-254h-88v712h88v-415h2l205 211h109l-228 -230l255 -278h-116z" />
    <glyph glyph-name="l" unicode="l" horiz-adv-x="244" 
d="M78 0v712h88v-712h-88z" />
    <glyph glyph-name="m" unicode="m" horiz-adv-x="863" 
d="M745.5 467q44.5 -52 44.5 -153v-314h-88v307q0 74 -26.5 107t-77.5 33q-55 0 -87.5 -43t-32.5 -116v-288h-88v320q0 60 -27 93.5t-76 33.5q-56 0 -88.5 -44t-32.5 -121v-282h-88v508h85v-63h2q54 74 142 74q53 0 92 -24.5t59 -71.5q54 96 161 96q82 0 126.5 -52z" />
    <glyph glyph-name="n" unicode="n" 
d="M455 466q48 -53 48 -156v-310h-88v303q0 77 -30 110.5t-87 33.5t-94.5 -41t-37.5 -115v-291h-88v508h85v-67h2q24 36 64 57t90 21q88 0 136 -53z" />
    <glyph glyph-name="o" unicode="o" horiz-adv-x="565" 
d="M459 450q65 -72 65 -196t-65 -196t-177 -72t-176.5 72t-64.5 196t64.5 196t176.5 72t177 -72zM173 397.5q-40 -52.5 -40 -143.5t40 -143.5t109 -52.5q70 0 110 52.5t40 143.5t-40 143.5t-110 52.5q-69 0 -109 -52.5z" />
    <glyph glyph-name="p" unicode="p" 
d="M434.5 488.5q48.5 -32.5 74.5 -93t26 -140.5t-26 -140.5t-74 -93.5t-112 -33q-51 0 -92.5 22.5t-62.5 61.5h-2v-257h-88v693h87v-73h2q20 40 62 63t93 23q64 0 112.5 -32.5zM199.5 397.5q-37.5 -52.5 -37.5 -142.5t37.5 -143t100.5 -53q65 0 104 53.5t39 142.5t-39 142
t-104 53q-63 0 -100.5 -52.5z" />
    <glyph glyph-name="q" unicode="q" 
d="M347.5 498q41.5 -23 62.5 -63h2v73h86v-693h-88v257h-2q-21 -39 -62.5 -61.5t-92.5 -22.5q-64 0 -112 33t-74 93.5t-26 140.5t26 140.5t74.5 93t112.5 32.5q52 0 93.5 -23zM172 397q-39 -53 -39 -142t39 -142.5t104 -53.5q63 0 101 53t38 143t-38 142.5t-101 52.5
q-65 0 -104 -53z" />
    <glyph glyph-name="r" unicode="r" horiz-adv-x="362" 
d="M351 509v-79q-33 3 -35 3q-72 0 -111 -45t-39 -129v-259h-88v508h84v-78h2q50 83 150 83q22 0 37 -4z" />
    <glyph glyph-name="s" unicode="s" horiz-adv-x="494" 
d="M385 477q52 -45 52 -128h-86q0 51 -29.5 78t-83.5 27q-46 0 -72.5 -19.5t-26.5 -52.5q0 -26 12.5 -40t35.5 -22t74 -20q66 -16 102.5 -30t63 -45.5t26.5 -86.5q0 -69 -54.5 -110.5t-146.5 -41.5q-101 0 -156.5 47t-56.5 136h89q0 -54 32.5 -83.5t92.5 -29.5q50 0 80 21
t30 55q0 29 -14 45t-41 25.5t-85 23.5q-61 15 -93 27.5t-55.5 41t-23.5 80.5q0 65 52.5 106t135.5 41q94 0 146 -45z" />
    <glyph glyph-name="t" unicode="t" horiz-adv-x="320" 
d="M293 74v-72q-22 -6 -56 -6q-73 0 -105.5 34t-32.5 112v296h-88v70h88v123h88v-123h101v-70h-101v-287q0 -44 16 -63t54 -19q21 0 36 5z" />
    <glyph glyph-name="u" unicode="u" 
d="M120.5 42q-47.5 53 -47.5 156v310h88v-303q0 -77 30 -110.5t87 -33.5q56 0 94 41.5t38 114.5v291h88v-508h-85v67h-2q-24 -36 -64.5 -57t-90.5 -21q-88 0 -135.5 53z" />
    <glyph glyph-name="v" unicode="v" horiz-adv-x="470" 
d="M178 0l-184 508h94l72 -213l74 -226h2l73 226l73 213h94l-184 -508h-114z" />
    <glyph glyph-name="w" unicode="w" horiz-adv-x="770" 
d="M502 0l-60 220q-11 42 -14 56q-24 89 -42 164h-2q-18 -75 -42 -164q-3 -14 -14 -56l-60 -220h-126l-135 508h89l54 -212l56 -228h2q27 114 56 223l58 217h126l58 -217l56 -223h2l56 228l54 212h89l-135 -508h-126z" />
    <glyph glyph-name="x" unicode="x" horiz-adv-x="480" 
d="M483 0h-106l-136 203h-2l-136 -203h-105l189 264l-173 244h104l121 -182h2l122 182h104l-173 -244z" />
    <glyph glyph-name="y" unicode="y" horiz-adv-x="472" 
d="M221.5 -124.5q-27.5 -35.5 -64 -50t-92.5 -14.5q-30 0 -46 5v74q18 -6 42 -6q34 0 55.5 10t37.5 34t33 70l-193 510h95l146 -404h2l148 404h93l-204 -531q-25 -66 -52.5 -101.5z" />
    <glyph glyph-name="z" unicode="z" horiz-adv-x="469" 
d="M134 74v-2h309v-72h-417v76l299 358v2h-289v72h397v-76z" />
    <glyph glyph-name="braceleft" unicode="{" horiz-adv-x="301" 
d="M209 660.5q-20 -22.5 -20 -76.5v-163q0 -53 -19 -81t-65 -43v-3q46 -14 65 -42.5t19 -80.5v-164q0 -54 20 -76.5t68 -23.5v-56h-22q-79 0 -113.5 38.5t-34.5 123.5v155q0 44 -15 65t-52 32v61q37 11 52 32.5t15 64.5v156q0 85 34.5 123.5t113.5 38.5h22v-56
q-48 -2 -68 -24.5z" />
    <glyph glyph-name="bar" unicode="|" horiz-adv-x="273" 
d="M96 -205v937h81v-937h-81z" />
    <glyph glyph-name="braceright" unicode="}" horiz-adv-x="301" 
d="M159.5 702.5q34.5 -38.5 34.5 -123.5v-156q0 -43 15 -64.5t52 -32.5v-61q-37 -11 -52 -32t-15 -65v-155q0 -85 -34.5 -123.5t-113.5 -38.5h-22v56q48 1 68 23.5t20 76.5v164q0 52 19 80.5t65 42.5v3q-46 15 -65 43t-19 81v163q0 54 -20 76.5t-68 24.5v56h22
q79 0 113.5 -38.5z" />
    <glyph glyph-name="asciitilde" unicode="~" horiz-adv-x="583" 
d="M241.5 394.5q29.5 -15.5 68.5 -46.5q32 -25 54 -37.5t47 -12.5q39 0 62 27.5t23 73.5h62q0 -79 -41 -127t-107 -48q-39 0 -68.5 15.5t-68.5 46.5q-32 25 -54 37.5t-47 12.5q-39 0 -62 -28t-23 -74h-62q0 79 41 127.5t107 48.5q39 0 68.5 -15.5z" />
    <glyph glyph-name="Aacute" unicode="&#xc1;" horiz-adv-x="675" 
d="M181 212l-78 -212h-98l270 712h125l271 -712h-99l-77 212h-314zM442 358l-103 290h-2l-103 -290l-24 -65h255zM271 760l86 138h113l-123 -138h-76z" />
    <glyph glyph-name="Abreve" unicode="&#x102;" horiz-adv-x="675" 
d="M181 212l-78 -212h-98l270 712h125l271 -712h-99l-77 212h-314zM442 358l-103 290h-2l-103 -290l-24 -65h255zM447.5 793q-40.5 -37 -109.5 -37q-70 0 -110.5 37t-45.5 105h66q4 -38 28 -59t62 -21t61.5 21t28.5 59h65q-5 -68 -45.5 -105z" />
    <glyph glyph-name="Acircumflex" unicode="&#xc2;" horiz-adv-x="675" 
d="M181 212l-78 -212h-98l270 712h125l271 -712h-99l-77 212h-314zM442 358l-103 290h-2l-103 -290l-24 -65h255zM386 898l114 -138h-89l-74 89l-73 -89h-89l114 138h97z" />
    <glyph glyph-name="Adieresis" unicode="&#xc4;" horiz-adv-x="675" 
d="M181 212l-78 -212h-98l270 712h125l271 -712h-99l-77 212h-314zM442 358l-103 290h-2l-103 -290l-24 -65h255zM199 775v99h82v-99h-82zM394 775v99h82v-99h-82z" />
    <glyph glyph-name="Agrave" unicode="&#xc0;" horiz-adv-x="675" 
d="M181 212l-78 -212h-98l270 712h125l271 -712h-99l-77 212h-314zM442 358l-103 290h-2l-103 -290l-24 -65h255zM404 760h-76l-123 138h113z" />
    <glyph glyph-name="Amacron" unicode="&#x100;" horiz-adv-x="675" 
d="M181 212l-78 -212h-98l270 712h125l271 -712h-99l-77 212h-314zM442 358l-103 290h-2l-103 -290l-24 -65h255zM195 788v65h284v-65h-284z" />
    <glyph glyph-name="Aogonek" unicode="&#x104;" horiz-adv-x="675" 
d="M674 -131v-53q-25 -10 -59 -10q-50 0 -74.5 21t-24.5 59q0 32 18.5 58.5t59.5 55.5h-22l-77 212h-314l-78 -212h-98l270 712h125l271 -712q-42 -31 -59 -54.5t-17 -47.5q0 -36 40 -36q22 0 39 7zM442 358l-103 290h-2l-103 -290l-24 -65h255z" />
    <glyph glyph-name="Aring" unicode="&#xc5;" horiz-adv-x="675" 
d="M181 212l-78 -212h-98l270 712h125l271 -712h-99l-77 212h-314zM442 358l-103 290h-2l-103 -290l-24 -65h255zM408.5 923.5q29.5 -29.5 29.5 -71.5q0 -41 -29.5 -70.5t-71.5 -29.5q-41 0 -70.5 29.5t-29.5 70.5q0 42 29.5 71.5t70.5 29.5q42 0 71.5 -29.5zM297 893
q-17 -17 -17 -41t17 -40.5t40 -16.5q25 0 41.5 16.5t16.5 40.5t-16.5 41t-41.5 17q-23 0 -40 -17z" />
    <glyph glyph-name="Atilde" unicode="&#xc3;" horiz-adv-x="675" 
d="M181 212l-78 -212h-98l270 712h125l271 -712h-99l-77 212h-314zM442 358l-103 290h-2l-103 -290l-24 -65h255zM480 807q-27 -30 -71 -30q-22 0 -40.5 7.5t-41.5 21.5q-22 12 -33.5 17t-24.5 5q-41 0 -46 -51h-58q3 55 30 85t71 30q22 0 40.5 -7.5t41.5 -21.5
q22 -12 33.5 -17t24.5 -5q40 0 46 51h58q-3 -55 -30 -85z" />
    <glyph glyph-name="AE" unicode="&#xc6;" horiz-adv-x="937" 
d="M884 0h-371l-34 224h-273l-107 -224h-105l349 712h530v-82h-364l34 -225h310v-81h-298l36 -242h293v-82zM418 634h-15l-158 -329h222z" />
    <glyph glyph-name="Cacute" unicode="&#x106;" horiz-adv-x="689" 
d="M501.5 693.5q62.5 -32.5 97.5 -90.5t39 -132h-95q-7 79 -57.5 125t-130.5 46q-101 0 -158.5 -76.5t-57.5 -209.5t57 -209.5t156 -76.5q79 0 131 47t63 128h96q-11 -120 -88 -189.5t-202 -69.5q-95 0 -164.5 44.5t-107 128t-37.5 197.5t37.5 197.5t108 128t166.5 44.5
q84 0 146.5 -32.5zM288 760l86 138h113l-123 -138h-76z" />
    <glyph glyph-name="Ccaron" unicode="&#x10c;" horiz-adv-x="689" 
d="M501.5 693.5q62.5 -32.5 97.5 -90.5t39 -132h-95q-7 79 -57.5 125t-130.5 46q-101 0 -158.5 -76.5t-57.5 -209.5t57 -209.5t156 -76.5q79 0 131 47t63 128h96q-11 -120 -88 -189.5t-202 -69.5q-95 0 -164.5 44.5t-107 128t-37.5 197.5t37.5 197.5t108 128t166.5 44.5
q84 0 146.5 -32.5zM306 760l-114 138h89l74 -88l73 88h89l-114 -138h-97z" />
    <glyph glyph-name="Ccedilla" unicode="&#xc7;" horiz-adv-x="689" 
d="M563 64.5q-68 -68.5 -180 -77.5l-32 -49q18 3 26 3q33 0 56.5 -20.5t23.5 -53.5q0 -37 -28.5 -62t-81.5 -25q-54 0 -105 27l18 37q36 -21 78 -21q27 0 41.5 10.5t14.5 30.5q0 19 -14.5 30.5t-38.5 11.5q-18 0 -31 -6l-18 20l44 66q-90 4 -156 49.5t-101.5 127.5
t-35.5 193q0 114 37.5 197.5t108 128t166.5 44.5q84 0 146.5 -32.5t97.5 -90.5t39 -132h-95q-7 79 -57.5 125t-130.5 46q-101 0 -158.5 -76.5t-57.5 -209.5t57 -209.5t156 -76.5q79 0 131 47t63 128h96q-11 -112 -79 -180.5z" />
    <glyph glyph-name="Ccircumflex" unicode="&#x108;" horiz-adv-x="689" 
d="M501.5 693.5q62.5 -32.5 97.5 -90.5t39 -132h-95q-7 79 -57.5 125t-130.5 46q-101 0 -158.5 -76.5t-57.5 -209.5t57 -209.5t156 -76.5q79 0 131 47t63 128h96q-11 -120 -88 -189.5t-202 -69.5q-95 0 -164.5 44.5t-107 128t-37.5 197.5t37.5 197.5t108 128t166.5 44.5
q84 0 146.5 -32.5zM403 898l114 -138h-89l-74 89l-73 -89h-89l114 138h97z" />
    <glyph glyph-name="Cdotaccent" unicode="&#x10a;" horiz-adv-x="689" 
d="M501.5 693.5q62.5 -32.5 97.5 -90.5t39 -132h-95q-7 79 -57.5 125t-130.5 46q-101 0 -158.5 -76.5t-57.5 -209.5t57 -209.5t156 -76.5q79 0 131 47t63 128h96q-11 -120 -88 -189.5t-202 -69.5q-95 0 -164.5 44.5t-107 128t-37.5 197.5t37.5 197.5t108 128t166.5 44.5
q84 0 146.5 -32.5zM311 769v99h88v-99h-88z" />
    <glyph glyph-name="Eth" unicode="&#xd0;" horiz-adv-x="723" 
d="M585 619.5q96 -92.5 96 -263.5t-96 -263.5t-273 -92.5h-217v325h-66v71h66v316h217q177 0 273 -92.5zM514 152q70 70 70 204t-70 204t-203 70h-124v-234h202v-71h-202v-243h124q133 0 203 70z" />
    <glyph glyph-name="Dcaron" unicode="&#x10e;" horiz-adv-x="723" 
d="M585 619.5q96 -92.5 96 -263.5t-96 -263.5t-273 -92.5h-217v712h217q177 0 273 -92.5zM187 82h124q133 0 203 70t70 204t-70 204t-203 70h-124v-548zM280 760l-114 138h89l74 -88l73 88h89l-114 -138h-97z" />
    <glyph glyph-name="Dcroat" unicode="&#x110;" horiz-adv-x="723" 
d="M585 619.5q96 -92.5 96 -263.5t-96 -263.5t-273 -92.5h-217v325h-66v71h66v316h217q177 0 273 -92.5zM514 152q70 70 70 204t-70 204t-203 70h-124v-234h202v-71h-202v-243h124q133 0 203 70z" />
    <glyph glyph-name="Eacute" unicode="&#xc9;" horiz-adv-x="618" 
d="M187 630v-225h346v-81h-346v-242h378v-82h-470v712h459v-82h-367zM257 760l86 138h113l-123 -138h-76z" />
    <glyph glyph-name="Ebreve" unicode="&#x114;" horiz-adv-x="618" 
d="M187 630v-225h346v-81h-346v-242h378v-82h-470v712h459v-82h-367zM434.5 793q-40.5 -37 -109.5 -37q-70 0 -110.5 37t-45.5 105h66q4 -38 28 -59t62 -21t61.5 21t28.5 59h65q-5 -68 -45.5 -105z" />
    <glyph glyph-name="Ecaron" unicode="&#x11a;" horiz-adv-x="618" 
d="M187 630v-225h346v-81h-346v-242h378v-82h-470v712h459v-82h-367zM276 760l-114 138h89l74 -88l73 88h89l-114 -138h-97z" />
    <glyph glyph-name="Ecircumflex" unicode="&#xca;" horiz-adv-x="618" 
d="M187 630v-225h346v-81h-346v-242h378v-82h-470v712h459v-82h-367zM373 898l114 -138h-89l-74 89l-73 -89h-89l114 138h97z" />
    <glyph glyph-name="Edieresis" unicode="&#xcb;" horiz-adv-x="618" 
d="M187 630v-225h346v-81h-346v-242h378v-82h-470v712h459v-82h-367zM186 775v99h82v-99h-82zM381 775v99h82v-99h-82z" />
    <glyph glyph-name="Edotaccent" unicode="&#x116;" horiz-adv-x="618" 
d="M187 630v-225h346v-81h-346v-242h378v-82h-470v712h459v-82h-367zM280 769v99h88v-99h-88z" />
    <glyph glyph-name="Egrave" unicode="&#xc8;" horiz-adv-x="618" 
d="M187 630v-225h346v-81h-346v-242h378v-82h-470v712h459v-82h-367zM391 760h-76l-123 138h113z" />
    <glyph glyph-name="Emacron" unicode="&#x112;" horiz-adv-x="618" 
d="M187 630v-225h346v-81h-346v-242h378v-82h-470v712h459v-82h-367zM182 788v65h284v-65h-284z" />
    <glyph glyph-name="Eogonek" unicode="&#x118;" horiz-adv-x="618" 
d="M568 -131v-53q-25 -10 -59 -10q-50 0 -74.5 21t-24.5 59q0 32 18.5 58.5t59.5 55.5h-393v712h459v-82h-367v-225h346v-81h-346v-242h378v-82q-42 -31 -59 -54.5t-17 -47.5q0 -36 40 -36q22 0 39 7z" />
    <glyph glyph-name="Gbreve" unicode="&#x11e;" horiz-adv-x="731" 
d="M562.5 664.5q75.5 -61.5 85.5 -166.5h-98q-12 69 -60 106.5t-125 37.5q-105 0 -165.5 -77t-60.5 -211q0 -135 58.5 -211.5t160.5 -76.5q92 0 146.5 56.5t55.5 176.5h-196v79h284v-378h-82v98h-2q-29 -51 -89 -81t-135 -30q-90 0 -157.5 44t-103.5 127t-36 196
q0 115 39 198.5t111.5 128.5t171.5 45q122 0 197.5 -61.5zM469.5 793q-40.5 -37 -109.5 -37q-70 0 -110.5 37t-45.5 105h66q4 -38 28 -59t62 -21t61.5 21t28.5 59h65q-5 -68 -45.5 -105z" />
    <glyph glyph-name="Gcircumflex" unicode="&#x11c;" horiz-adv-x="731" 
d="M562.5 664.5q75.5 -61.5 85.5 -166.5h-98q-12 69 -60 106.5t-125 37.5q-105 0 -165.5 -77t-60.5 -211q0 -135 58.5 -211.5t160.5 -76.5q92 0 146.5 56.5t55.5 176.5h-196v79h284v-378h-82v98h-2q-29 -51 -89 -81t-135 -30q-90 0 -157.5 44t-103.5 127t-36 196
q0 115 39 198.5t111.5 128.5t171.5 45q122 0 197.5 -61.5zM408 898l114 -138h-89l-74 89l-73 -89h-89l114 138h97z" />
    <glyph glyph-name="Gcommaaccent" unicode="&#x122;" horiz-adv-x="731" 
d="M562.5 664.5q75.5 -61.5 85.5 -166.5h-98q-12 69 -60 106.5t-125 37.5q-105 0 -165.5 -77t-60.5 -211q0 -135 58.5 -211.5t160.5 -76.5q92 0 146.5 56.5t55.5 176.5h-196v79h284v-378h-82v98h-2q-29 -51 -89 -81t-135 -30q-90 0 -157.5 44t-103.5 127t-36 196
q0 115 39 198.5t111.5 128.5t171.5 45q122 0 197.5 -61.5zM348 -257h-38l38 103h-34v89h89v-89z" />
    <glyph glyph-name="Gdotaccent" unicode="&#x120;" horiz-adv-x="731" 
d="M562.5 664.5q75.5 -61.5 85.5 -166.5h-98q-12 69 -60 106.5t-125 37.5q-105 0 -165.5 -77t-60.5 -211q0 -135 58.5 -211.5t160.5 -76.5q92 0 146.5 56.5t55.5 176.5h-196v79h284v-378h-82v98h-2q-29 -51 -89 -81t-135 -30q-90 0 -157.5 44t-103.5 127t-36 196
q0 115 39 198.5t111.5 128.5t171.5 45q122 0 197.5 -61.5zM315 769v99h88v-99h-88z" />
    <glyph glyph-name="Hbar" unicode="&#x126;" horiz-adv-x="737" 
d="M643 574v-574h-93v329h-363v-329h-92v574h-59v58h59v80h92v-80h363v80h93v-80h58v-58h-58zM187 574v-164h363v164h-363z" />
    <glyph glyph-name="Hcircumflex" unicode="&#x124;" horiz-adv-x="737" 
d="M550 0v329h-363v-329h-92v712h92v-302h363v302h93v-712h-93zM417 898l114 -138h-89l-74 89l-73 -89h-89l114 138h97z" />
    <glyph glyph-name="IJ" unicode="&#x132;" horiz-adv-x="637" 
d="M95 0v712h92v-712h-92zM347 -5q-30 0 -50 6v82q27 -5 43 -5q59 0 87.5 32t28.5 106v496h92v-508q0 -209 -201 -209z" />
    <glyph glyph-name="Iacute" unicode="&#xcd;" horiz-adv-x="282" 
d="M95 0v712h92v-712h-92zM74 760l86 138h113l-123 -138h-76z" />
    <glyph glyph-name="Ibreve" unicode="&#x12c;" horiz-adv-x="282" 
d="M95 0v712h92v-712h-92zM250.5 793q-40.5 -37 -109.5 -37q-70 0 -110.5 37t-45.5 105h66q4 -38 28 -59t62 -21t61.5 21t28.5 59h65q-5 -68 -45.5 -105z" />
    <glyph glyph-name="Icircumflex" unicode="&#xce;" horiz-adv-x="282" 
d="M95 0v712h92v-712h-92zM189 898l114 -138h-89l-74 89l-73 -89h-89l114 138h97z" />
    <glyph glyph-name="Idieresis" unicode="&#xcf;" horiz-adv-x="282" 
d="M95 0v712h92v-712h-92zM2 775v99h82v-99h-82zM197 775v99h82v-99h-82z" />
    <glyph glyph-name="Idotaccent" unicode="&#x130;" horiz-adv-x="282" 
d="M95 0v712h92v-712h-92zM97 769v99h88v-99h-88z" />
    <glyph glyph-name="Igrave" unicode="&#xcc;" horiz-adv-x="282" 
d="M95 0v712h92v-712h-92zM208 760h-76l-123 138h113z" />
    <glyph glyph-name="Imacron" unicode="&#x12a;" horiz-adv-x="282" 
d="M95 0v712h92v-712h-92zM-1 788v65h284v-65h-284z" />
    <glyph glyph-name="Iogonek" unicode="&#x12e;" horiz-adv-x="282" 
d="M190 -131v-53q-25 -10 -59 -10q-50 0 -74.5 21t-24.5 59q0 32 18.5 58.5t59.5 55.5h-15v712h92v-712q-42 -31 -59 -54.5t-17 -47.5q0 -36 40 -36q22 0 39 7z" />
    <glyph glyph-name="Itilde" unicode="&#x128;" horiz-adv-x="282" 
d="M95 0v712h92v-712h-92zM284 807q-27 -30 -71 -30q-22 0 -40.5 7.5t-41.5 21.5q-22 12 -33.5 17t-24.5 5q-41 0 -46 -51h-58q3 55 30 85t71 30q22 0 40.5 -7.5t41.5 -21.5q22 -12 33.5 -17t24.5 -5q40 0 46 51h58q-3 -55 -30 -85z" />
    <glyph glyph-name="Jcircumflex" unicode="&#x134;" horiz-adv-x="356" 
d="M65 -5q-30 0 -50 6v82q27 -5 43 -5q59 0 87.5 32t28.5 106v496h92v-508q0 -209 -201 -209zM268 898l114 -138h-89l-74 89l-73 -89h-89l114 138h97z" />
    <glyph glyph-name="Kcommaaccent" unicode="&#x136;" horiz-adv-x="625" 
d="M621 0h-123l-309 350h-2v-350h-92v712h92v-321h2l287 321h116l-311 -339zM317 -257h-38l38 103h-34v89h89v-89z" />
    <glyph glyph-name="Lacute" unicode="&#x139;" horiz-adv-x="561" 
d="M551 82v-82h-456v712h92v-630h364zM106 760l86 138h113l-123 -138h-76z" />
    <glyph glyph-name="Lcaron" unicode="&#x13d;" horiz-adv-x="561" 
d="M551 82v-82h-456v712h92v-630h364zM246 494l29 218h80l-55 -218h-54z" />
    <glyph glyph-name="Lcommaaccent" unicode="&#x13b;" horiz-adv-x="561" 
d="M551 82v-82h-456v712h92v-630h364zM312 -257h-38l38 103h-34v89h89v-89z" />
    <glyph glyph-name="Ldot" unicode="&#x13f;" horiz-adv-x="641" 
d="M551 82v-82h-456v712h92v-630h364zM405 354v117h108v-117h-108z" />
    <glyph glyph-name="Lslash" unicode="&#x141;" horiz-adv-x="561" 
d="M551 0h-456v305l-79 -48v83l79 47v325h92v-278l148 88v-82l-148 -88v-270h364v-82z" />
    <glyph glyph-name="Nacute" unicode="&#x143;" horiz-adv-x="755" 
d="M525 0l-169 307l-172 319h-2q3 -171 3 -341v-285h-90v712h135l170 -307l172 -319h2q-3 171 -3 341v285h90v-712h-136zM311 760l86 138h113l-123 -138h-76z" />
    <glyph glyph-name="Ncaron" unicode="&#x147;" horiz-adv-x="755" 
d="M525 0l-169 307l-172 319h-2q3 -171 3 -341v-285h-90v712h135l170 -307l172 -319h2q-3 171 -3 341v285h90v-712h-136zM329 760l-114 138h89l74 -88l73 88h89l-114 -138h-97z" />
    <glyph glyph-name="Ncommaaccent" unicode="&#x145;" horiz-adv-x="755" 
d="M525 0l-169 307l-172 319h-2q3 -171 3 -341v-285h-90v712h135l170 -307l172 -319h2q-3 171 -3 341v285h90v-712h-136zM367 -257h-38l38 103h-34v89h89v-89z" />
    <glyph glyph-name="Eng" unicode="&#x14a;" horiz-adv-x="744" 
d="M650 -36q0 -80 -39.5 -117t-108.5 -37q-28 0 -47 5v70q15 -3 30 -3q38 0 56.5 19.5t18.5 67.5v31l-203 328l-174 287h-2q4 -140 4 -315v-300h-90v712h126l166 -271l174 -287h2q-4 140 -4 316v242h91v-748z" />
    <glyph glyph-name="Ntilde" unicode="&#xd1;" horiz-adv-x="755" 
d="M525 0l-169 307l-172 319h-2q3 -171 3 -341v-285h-90v712h135l170 -307l172 -319h2q-3 171 -3 341v285h90v-712h-136zM521 807q-27 -30 -71 -30q-22 0 -40.5 7.5t-41.5 21.5q-22 12 -33.5 17t-24.5 5q-41 0 -46 -51h-58q3 55 30 85t71 30q22 0 40.5 -7.5t41.5 -21.5
q22 -12 33.5 -17t24.5 -5q40 0 46 51h58q-3 -55 -30 -85z" />
    <glyph glyph-name="Oacute" unicode="&#xd3;" horiz-adv-x="732" 
d="M537 681q73 -45 112.5 -128.5t39.5 -196.5t-39.5 -196.5t-112.5 -128.5t-171 -45t-171 45t-112.5 128.5t-39.5 196.5t39.5 196.5t112.5 128.5t171 45t171 -45zM245.5 607q-51.5 -35 -79 -99.5t-27.5 -151.5t27.5 -151.5t79 -99.5t120.5 -35t120.5 35t79 99.5t27.5 151.5
t-27.5 151.5t-79 99.5t-120.5 35t-120.5 -35zM299 760l86 138h113l-123 -138h-76z" />
    <glyph glyph-name="Obreve" unicode="&#x14e;" horiz-adv-x="732" 
d="M537 681q73 -45 112.5 -128.5t39.5 -196.5t-39.5 -196.5t-112.5 -128.5t-171 -45t-171 45t-112.5 128.5t-39.5 196.5t39.5 196.5t112.5 128.5t171 45t171 -45zM245.5 607q-51.5 -35 -79 -99.5t-27.5 -151.5t27.5 -151.5t79 -99.5t120.5 -35t120.5 35t79 99.5t27.5 151.5
t-27.5 151.5t-79 99.5t-120.5 35t-120.5 -35zM475.5 793q-40.5 -37 -109.5 -37q-70 0 -110.5 37t-45.5 105h66q4 -38 28 -59t62 -21t61.5 21t28.5 59h65q-5 -68 -45.5 -105z" />
    <glyph glyph-name="Ocircumflex" unicode="&#xd4;" horiz-adv-x="732" 
d="M537 681q73 -45 112.5 -128.5t39.5 -196.5t-39.5 -196.5t-112.5 -128.5t-171 -45t-171 45t-112.5 128.5t-39.5 196.5t39.5 196.5t112.5 128.5t171 45t171 -45zM245.5 607q-51.5 -35 -79 -99.5t-27.5 -151.5t27.5 -151.5t79 -99.5t120.5 -35t120.5 35t79 99.5t27.5 151.5
t-27.5 151.5t-79 99.5t-120.5 35t-120.5 -35zM414 898l114 -138h-89l-74 89l-73 -89h-89l114 138h97z" />
    <glyph glyph-name="Odieresis" unicode="&#xd6;" horiz-adv-x="732" 
d="M537 681q73 -45 112.5 -128.5t39.5 -196.5t-39.5 -196.5t-112.5 -128.5t-171 -45t-171 45t-112.5 128.5t-39.5 196.5t39.5 196.5t112.5 128.5t171 45t171 -45zM245.5 607q-51.5 -35 -79 -99.5t-27.5 -151.5t27.5 -151.5t79 -99.5t120.5 -35t120.5 35t79 99.5t27.5 151.5
t-27.5 151.5t-79 99.5t-120.5 35t-120.5 -35zM227 775v99h82v-99h-82zM422 775v99h82v-99h-82z" />
    <glyph glyph-name="Ograve" unicode="&#xd2;" horiz-adv-x="732" 
d="M537 681q73 -45 112.5 -128.5t39.5 -196.5t-39.5 -196.5t-112.5 -128.5t-171 -45t-171 45t-112.5 128.5t-39.5 196.5t39.5 196.5t112.5 128.5t171 45t171 -45zM245.5 607q-51.5 -35 -79 -99.5t-27.5 -151.5t27.5 -151.5t79 -99.5t120.5 -35t120.5 35t79 99.5t27.5 151.5
t-27.5 151.5t-79 99.5t-120.5 35t-120.5 -35zM432 760h-76l-123 138h113z" />
    <glyph glyph-name="Ohungarumlaut" unicode="&#x150;" horiz-adv-x="732" 
d="M537 681q73 -45 112.5 -128.5t39.5 -196.5t-39.5 -196.5t-112.5 -128.5t-171 -45t-171 45t-112.5 128.5t-39.5 196.5t39.5 196.5t112.5 128.5t171 45t171 -45zM245.5 607q-51.5 -35 -79 -99.5t-27.5 -151.5t27.5 -151.5t79 -99.5t120.5 -35t120.5 35t79 99.5t27.5 151.5
t-27.5 151.5t-79 99.5t-120.5 35t-120.5 -35zM220 756l106 142h104l-136 -142h-74zM380 756l106 142h104l-136 -142h-74z" />
    <glyph glyph-name="Omacron" unicode="&#x14c;" horiz-adv-x="732" 
d="M537 681q73 -45 112.5 -128.5t39.5 -196.5t-39.5 -196.5t-112.5 -128.5t-171 -45t-171 45t-112.5 128.5t-39.5 196.5t39.5 196.5t112.5 128.5t171 45t171 -45zM245.5 607q-51.5 -35 -79 -99.5t-27.5 -151.5t27.5 -151.5t79 -99.5t120.5 -35t120.5 35t79 99.5t27.5 151.5
t-27.5 151.5t-79 99.5t-120.5 35t-120.5 -35zM224 788v65h284v-65h-284z" />
    <glyph glyph-name="Oslash" unicode="&#xd8;" horiz-adv-x="732" 
d="M667.5 505q21.5 -67 21.5 -149q0 -113 -39.5 -196.5t-112.5 -128.5t-171 -45q-115 0 -193 60l-60 -79l-51 39l64 85q-40 49 -61.5 116t-21.5 149q0 113 39.5 196.5t112.5 128.5t171 45q115 0 194 -61l60 80l50 -39l-64 -85q40 -49 61.5 -116zM183 167l324 428
q-58 50 -141 50q-70 0 -121.5 -35.5t-79.5 -100.5t-28 -153q0 -115 46 -189zM487.5 102.5q51.5 35.5 79.5 100.5t28 153q0 115 -46 189l-323 -428q58 -50 140 -50q70 0 121.5 35.5z" />
    <glyph glyph-name="Otilde" unicode="&#xd5;" horiz-adv-x="732" 
d="M537 681q73 -45 112.5 -128.5t39.5 -196.5t-39.5 -196.5t-112.5 -128.5t-171 -45t-171 45t-112.5 128.5t-39.5 196.5t39.5 196.5t112.5 128.5t171 45t171 -45zM245.5 607q-51.5 -35 -79 -99.5t-27.5 -151.5t27.5 -151.5t79 -99.5t120.5 -35t120.5 35t79 99.5t27.5 151.5
t-27.5 151.5t-79 99.5t-120.5 35t-120.5 -35zM509 807q-27 -30 -71 -30q-22 0 -40.5 7.5t-41.5 21.5q-22 12 -33.5 17t-24.5 5q-41 0 -46 -51h-58q3 55 30 85t71 30q22 0 40.5 -7.5t41.5 -21.5q22 -12 33.5 -17t24.5 -5q40 0 46 51h58q-3 -55 -30 -85z" />
    <glyph glyph-name="OE" unicode="&#x152;" horiz-adv-x="999" 
d="M568 630v-225h347v-81h-347v-242h378v-82h-537q-176 0 -271 92.5t-95 263.5t95 263.5t271 92.5h526v-82h-367zM208.5 559.5q-69.5 -70.5 -69.5 -203.5t69.5 -203.5t200.5 -70.5h67v548h-67q-131 0 -200.5 -70.5z" />
    <glyph glyph-name="Thorn" unicode="&#xde;" horiz-adv-x="616" 
d="M339 582q121 0 185 -57.5t64 -156.5q0 -100 -64 -157.5t-185 -57.5h-152v-153h-92v712h92v-130h152zM187 233h145q80 0 120.5 35.5t40.5 99.5t-40.5 99t-120.5 35h-145v-269z" />
    <glyph glyph-name="Racute" unicode="&#x154;" horiz-adv-x="640" 
d="M509 662q62 -50 62 -143q0 -68 -37 -116t-99 -62v-2q39 -12 61 -40t46 -94l73 -205h-100l-65 188q-22 64 -51.5 88t-86.5 24h-125v-300h-92v712h226q126 0 188 -50zM187 378h133q80 0 118.5 36.5t38.5 97.5q0 121 -163 121h-127v-255zM249 760l86 138h113l-123 -138h-76z
" />
    <glyph glyph-name="Rcaron" unicode="&#x158;" horiz-adv-x="640" 
d="M509 662q62 -50 62 -143q0 -68 -37 -116t-99 -62v-2q39 -12 61 -40t46 -94l73 -205h-100l-65 188q-22 64 -51.5 88t-86.5 24h-125v-300h-92v712h226q126 0 188 -50zM187 378h133q80 0 118.5 36.5t38.5 97.5q0 121 -163 121h-127v-255zM267 760l-114 138h89l74 -88l73 88
h89l-114 -138h-97z" />
    <glyph glyph-name="Rcommaaccent" unicode="&#x156;" horiz-adv-x="640" 
d="M509 662q62 -50 62 -143q0 -68 -37 -116t-99 -62v-2q39 -12 61 -40t46 -94l73 -205h-100l-65 188q-22 64 -51.5 88t-86.5 24h-125v-300h-92v712h226q126 0 188 -50zM187 378h133q80 0 118.5 36.5t38.5 97.5q0 121 -163 121h-127v-255zM329 -257h-38l38 103h-34v89h89v-89
z" />
    <glyph glyph-name="Sacute" unicode="&#x15a;" horiz-adv-x="609" 
d="M479 667q64 -59 64 -175h-93q0 78 -41.5 116.5t-121.5 38.5q-66 0 -103.5 -30t-37.5 -81q0 -37 18 -59.5t53.5 -37t100.5 -30.5q82 -20 131.5 -41t80 -62t30.5 -110q0 -63 -31.5 -110.5t-89 -73.5t-134.5 -26q-126 0 -196 64t-70 186h95q0 -86 45 -128.5t127 -42.5
q76 0 117.5 33t41.5 93q0 38 -18.5 61t-54 36.5t-101.5 30.5q-82 20 -131 41.5t-78.5 61.5t-29.5 108q0 57 29 101.5t82.5 69.5t124.5 25q127 0 191 -59zM222 760l86 138h113l-123 -138h-76z" />
    <glyph glyph-name="Scaron" unicode="&#x160;" horiz-adv-x="609" 
d="M479 667q64 -59 64 -175h-93q0 78 -41.5 116.5t-121.5 38.5q-66 0 -103.5 -30t-37.5 -81q0 -37 18 -59.5t53.5 -37t100.5 -30.5q82 -20 131.5 -41t80 -62t30.5 -110q0 -63 -31.5 -110.5t-89 -73.5t-134.5 -26q-126 0 -196 64t-70 186h95q0 -86 45 -128.5t127 -42.5
q76 0 117.5 33t41.5 93q0 38 -18.5 61t-54 36.5t-101.5 30.5q-82 20 -131 41.5t-78.5 61.5t-29.5 108q0 57 29 101.5t82.5 69.5t124.5 25q127 0 191 -59zM240 760l-114 138h89l74 -88l73 88h89l-114 -138h-97z" />
    <glyph glyph-name="Scedilla" unicode="&#x15e;" horiz-adv-x="609" 
d="M499.5 50.5q-60.5 -55.5 -164.5 -63.5l-32 -49q18 3 26 3q33 0 56.5 -20.5t23.5 -53.5q0 -37 -28.5 -62t-81.5 -25q-54 0 -105 27l18 37q36 -21 78 -21q27 0 41.5 10.5t14.5 30.5q0 19 -14.5 30.5t-38.5 11.5q-18 0 -31 -6l-18 20l44 66q-118 5 -183.5 69t-65.5 181h95
q0 -86 45 -128.5t127 -42.5q76 0 117.5 33t41.5 93q0 38 -18.5 61t-54 36.5t-101.5 30.5q-82 20 -131 41.5t-78.5 61.5t-29.5 108q0 57 29 101.5t82.5 69.5t124.5 25q127 0 191 -59t64 -175h-93q0 78 -41.5 116.5t-121.5 38.5q-66 0 -103.5 -30t-37.5 -81q0 -37 18 -59.5
t53.5 -37t100.5 -30.5q82 -20 131.5 -41t80 -62t30.5 -110q0 -90 -60.5 -145.5z" />
    <glyph glyph-name="Scircumflex" unicode="&#x15c;" horiz-adv-x="609" 
d="M479 667q64 -59 64 -175h-93q0 78 -41.5 116.5t-121.5 38.5q-66 0 -103.5 -30t-37.5 -81q0 -37 18 -59.5t53.5 -37t100.5 -30.5q82 -20 131.5 -41t80 -62t30.5 -110q0 -63 -31.5 -110.5t-89 -73.5t-134.5 -26q-126 0 -196 64t-70 186h95q0 -86 45 -128.5t127 -42.5
q76 0 117.5 33t41.5 93q0 38 -18.5 61t-54 36.5t-101.5 30.5q-82 20 -131 41.5t-78.5 61.5t-29.5 108q0 57 29 101.5t82.5 69.5t124.5 25q127 0 191 -59zM337 898l114 -138h-89l-74 89l-73 -89h-89l114 138h97z" />
    <glyph glyph-name="Scommaaccent" unicode="&#x218;" horiz-adv-x="609" 
d="M479 667q64 -59 64 -175h-93q0 78 -41.5 116.5t-121.5 38.5q-66 0 -103.5 -30t-37.5 -81q0 -37 18 -59.5t53.5 -37t100.5 -30.5q82 -20 131.5 -41t80 -62t30.5 -110q0 -63 -31.5 -110.5t-89 -73.5t-134.5 -26q-126 0 -196 64t-70 186h95q0 -86 45 -128.5t127 -42.5
q76 0 117.5 33t41.5 93q0 38 -18.5 61t-54 36.5t-101.5 30.5q-82 20 -131 41.5t-78.5 61.5t-29.5 108q0 57 29 101.5t82.5 69.5t124.5 25q127 0 191 -59zM292 -257h-38l38 103h-34v89h89v-89z" />
    <glyph glyph-name="Germandbls" unicode="&#x1e9e;" horiz-adv-x="769" 
d="M723 192q0 -98 -63 -151t-170 -53q-106 0 -162 49.5t-56 143.5h91q0 -55 32.5 -84t94.5 -29q64 0 100.5 32t36.5 93q0 77 -57.5 116.5t-171.5 48.5v68l151 161q-29 27 -70.5 42.5t-90.5 15.5q-104 0 -157.5 -55.5t-53.5 -165.5v-424h-92v423q0 146 79.5 224t227.5 78
q85 0 156.5 -34t117.5 -93l-165 -176q222 -46 222 -230z" />
    <glyph glyph-name="Tbar" unicode="&#x166;" horiz-adv-x="599" 
d="M346 409h141v-72h-141v-337h-93v337h-141v72h141v221h-243v82h579v-82h-243v-221z" />
    <glyph glyph-name="Tcaron" unicode="&#x164;" horiz-adv-x="599" 
d="M346 630v-630h-93v630h-243v82h579v-82h-243zM251 760l-114 138h89l74 -88l73 88h89l-114 -138h-97z" />
    <glyph glyph-name="uni0162" unicode="&#x162;" horiz-adv-x="599" 
d="M346 630v-630h-93v630h-243v82h579v-82h-243zM289 -257h-38l38 103h-34v89h89v-89z" />
    <glyph glyph-name="uni021A" unicode="&#x21a;" horiz-adv-x="599" 
d="M346 630v-630h-93v630h-243v82h579v-82h-243zM289 -257h-38l38 103h-34v89h89v-89z" />
    <glyph glyph-name="Uacute" unicode="&#xda;" horiz-adv-x="705" 
d="M549 58q-68 -72 -196 -72q-129 0 -196.5 71.5t-67.5 209.5v445h92v-443q0 -98 45 -148.5t127 -50.5t126.5 50.5t44.5 148.5v443h93v-445q0 -137 -68 -209zM286 760l86 138h113l-123 -138h-76z" />
    <glyph glyph-name="Ubreve" unicode="&#x16c;" horiz-adv-x="705" 
d="M549 58q-68 -72 -196 -72q-129 0 -196.5 71.5t-67.5 209.5v445h92v-443q0 -98 45 -148.5t127 -50.5t126.5 50.5t44.5 148.5v443h93v-445q0 -137 -68 -209zM462.5 793q-40.5 -37 -109.5 -37q-70 0 -110.5 37t-45.5 105h66q4 -38 28 -59t62 -21t61.5 21t28.5 59h65
q-5 -68 -45.5 -105z" />
    <glyph glyph-name="Ucircumflex" unicode="&#xdb;" horiz-adv-x="705" 
d="M549 58q-68 -72 -196 -72q-129 0 -196.5 71.5t-67.5 209.5v445h92v-443q0 -98 45 -148.5t127 -50.5t126.5 50.5t44.5 148.5v443h93v-445q0 -137 -68 -209zM401 898l114 -138h-89l-74 89l-73 -89h-89l114 138h97z" />
    <glyph glyph-name="Udieresis" unicode="&#xdc;" horiz-adv-x="705" 
d="M549 58q-68 -72 -196 -72q-129 0 -196.5 71.5t-67.5 209.5v445h92v-443q0 -98 45 -148.5t127 -50.5t126.5 50.5t44.5 148.5v443h93v-445q0 -137 -68 -209zM214 775v99h82v-99h-82zM409 775v99h82v-99h-82z" />
    <glyph glyph-name="Ugrave" unicode="&#xd9;" horiz-adv-x="705" 
d="M549 58q-68 -72 -196 -72q-129 0 -196.5 71.5t-67.5 209.5v445h92v-443q0 -98 45 -148.5t127 -50.5t126.5 50.5t44.5 148.5v443h93v-445q0 -137 -68 -209zM419 760h-76l-123 138h113z" />
    <glyph glyph-name="Uhungarumlaut" unicode="&#x170;" horiz-adv-x="705" 
d="M549 58q-68 -72 -196 -72q-129 0 -196.5 71.5t-67.5 209.5v445h92v-443q0 -98 45 -148.5t127 -50.5t126.5 50.5t44.5 148.5v443h93v-445q0 -137 -68 -209zM207 756l106 142h104l-136 -142h-74zM367 756l106 142h104l-136 -142h-74z" />
    <glyph glyph-name="Umacron" unicode="&#x16a;" horiz-adv-x="705" 
d="M549 58q-68 -72 -196 -72q-129 0 -196.5 71.5t-67.5 209.5v445h92v-443q0 -98 45 -148.5t127 -50.5t126.5 50.5t44.5 148.5v443h93v-445q0 -137 -68 -209zM210 788v65h284v-65h-284z" />
    <glyph glyph-name="Uogonek" unicode="&#x172;" horiz-adv-x="705" 
d="M588.5 116.5q-28.5 -60.5 -85.5 -105.5q-43 -34 -59.5 -58t-16.5 -49q0 -42 41 -42q21 0 38 7v-53q-25 -10 -58 -10q-50 0 -74.5 22t-24.5 63q0 28 14.5 51t45.5 50v2q-27 -8 -56 -8q-129 0 -196.5 71.5t-67.5 209.5v445h92v-443q0 -98 45 -148.5t127 -50.5t126.5 50.5
t44.5 148.5v443h93v-445q0 -90 -28.5 -150.5z" />
    <glyph glyph-name="Uring" unicode="&#x16e;" horiz-adv-x="705" 
d="M549 58q-68 -72 -196 -72q-129 0 -196.5 71.5t-67.5 209.5v445h92v-443q0 -98 45 -148.5t127 -50.5t126.5 50.5t44.5 148.5v443h93v-445q0 -137 -68 -209zM423.5 923.5q29.5 -29.5 29.5 -71.5q0 -41 -29.5 -70.5t-71.5 -29.5q-41 0 -70.5 29.5t-29.5 70.5q0 42 29.5 71.5
t70.5 29.5q42 0 71.5 -29.5zM312 893q-17 -17 -17 -41t17 -40.5t40 -16.5q25 0 41.5 16.5t16.5 40.5t-16.5 41t-41.5 17q-23 0 -40 -17z" />
    <glyph glyph-name="Utilde" unicode="&#x168;" horiz-adv-x="705" 
d="M549 58q-68 -72 -196 -72q-129 0 -196.5 71.5t-67.5 209.5v445h92v-443q0 -98 45 -148.5t127 -50.5t126.5 50.5t44.5 148.5v443h93v-445q0 -137 -68 -209zM495 807q-27 -30 -71 -30q-22 0 -40.5 7.5t-41.5 21.5q-22 12 -33.5 17t-24.5 5q-41 0 -46 -51h-58q3 55 30 85
t71 30q22 0 40.5 -7.5t41.5 -21.5q22 -12 33.5 -17t24.5 -5q40 0 46 51h58q-3 -55 -30 -85z" />
    <glyph glyph-name="Wacute" unicode="&#x1e82;" horiz-adv-x="916" 
d="M608 0l-75 311q-41 169 -74 319h-2q-33 -150 -74 -319l-75 -311h-132l-166 712h92l67 -288l67 -303l7 -32h2q45 202 79 336l70 287h128l70 -287q34 -134 79 -336h2q31 151 74 335l67 288h92l-166 -712h-132zM391 760l86 138h113l-123 -138h-76z" />
    <glyph glyph-name="Wcircumflex" unicode="&#x174;" horiz-adv-x="916" 
d="M608 0l-75 311q-41 169 -74 319h-2q-33 -150 -74 -319l-75 -311h-132l-166 712h92l67 -288l67 -303l7 -32h2q45 202 79 336l70 287h128l70 -287q34 -134 79 -336h2q31 151 74 335l67 288h92l-166 -712h-132zM506 898l114 -138h-89l-74 89l-73 -89h-89l114 138h97z" />
    <glyph glyph-name="Wdieresis" unicode="&#x1e84;" horiz-adv-x="916" 
d="M608 0l-75 311q-41 169 -74 319h-2q-33 -150 -74 -319l-75 -311h-132l-166 712h92l67 -288l67 -303l7 -32h2q45 202 79 336l70 287h128l70 -287q34 -134 79 -336h2q31 151 74 335l67 288h92l-166 -712h-132zM319 775v99h82v-99h-82zM514 775v99h82v-99h-82z" />
    <glyph glyph-name="Wgrave" unicode="&#x1e80;" horiz-adv-x="916" 
d="M608 0l-75 311q-41 169 -74 319h-2q-33 -150 -74 -319l-75 -311h-132l-166 712h92l67 -288l67 -303l7 -32h2q45 202 79 336l70 287h128l70 -287q34 -134 79 -336h2q31 151 74 335l67 288h92l-166 -712h-132zM524 760h-76l-123 138h113z" />
    <glyph glyph-name="Yacute" unicode="&#xdd;" horiz-adv-x="614" 
d="M353 0h-92v295l-257 417h107l87 -147l108 -188h2l108 188l88 147h106l-257 -417v-295zM240 760l86 138h113l-123 -138h-76z" />
    <glyph glyph-name="Ycircumflex" unicode="&#x176;" horiz-adv-x="614" 
d="M353 0h-92v295l-257 417h107l87 -147l108 -188h2l108 188l88 147h106l-257 -417v-295zM355 898l114 -138h-89l-74 89l-73 -89h-89l114 138h97z" />
    <glyph glyph-name="Ydieresis" unicode="&#x178;" horiz-adv-x="614" 
d="M353 0h-92v295l-257 417h107l87 -147l108 -188h2l108 188l88 147h106l-257 -417v-295zM168 775v99h82v-99h-82zM363 775v99h82v-99h-82z" />
    <glyph glyph-name="Ygrave" unicode="&#x1ef2;" horiz-adv-x="614" 
d="M353 0h-92v295l-257 417h107l87 -147l108 -188h2l108 188l88 147h106l-257 -417v-295zM374 760h-76l-123 138h113z" />
    <glyph glyph-name="Zacute" unicode="&#x179;" horiz-adv-x="566" 
d="M126 83v-2h422v-81h-530v88l403 541v2h-392v81h500v-88zM212 760l86 138h113l-123 -138h-76z" />
    <glyph glyph-name="Zcaron" unicode="&#x17d;" horiz-adv-x="566" 
d="M126 83v-2h422v-81h-530v88l403 541v2h-392v81h500v-88zM230 760l-114 138h89l74 -88l73 88h89l-114 -138h-97z" />
    <glyph glyph-name="Zdotaccent" unicode="&#x17b;" horiz-adv-x="566" 
d="M126 83v-2h422v-81h-530v88l403 541v2h-392v81h500v-88zM235 769v99h88v-99h-88z" />
    <glyph glyph-name="J.acute.loclNLD" horiz-adv-x="356" 
d="M65 -5q-30 0 -50 6v82q27 -5 43 -5q59 0 87.5 32t28.5 106v496h92v-508q0 -209 -201 -209zM153 773l86 143h113l-123 -143h-76z" />
    <glyph glyph-name="Ccedilla.ss01" horiz-adv-x="689" 
d="M501.5 693.5q62.5 -32.5 97.5 -90.5t39 -132h-95q-7 79 -57.5 125t-130.5 46q-101 0 -158.5 -76.5t-57.5 -209.5t57 -209.5t156 -76.5q79 0 131 47t63 128h96q-11 -120 -88 -189.5t-202 -69.5q-95 0 -164.5 44.5t-107 128t-37.5 197.5t37.5 197.5t108 128t166.5 44.5
q84 0 146.5 -32.5zM194 -211l129 162h80l-99 -162h-110z" />
    <glyph glyph-name="Scedilla.ss01" horiz-adv-x="609" 
d="M479 667q64 -59 64 -175h-93q0 78 -41.5 116.5t-121.5 38.5q-66 0 -103.5 -30t-37.5 -81q0 -37 18 -59.5t53.5 -37t100.5 -30.5q82 -20 131.5 -41t80 -62t30.5 -110q0 -63 -31.5 -110.5t-89 -73.5t-134.5 -26q-126 0 -196 64t-70 186h95q0 -86 45 -128.5t127 -42.5
q76 0 117.5 33t41.5 93q0 38 -18.5 61t-54 36.5t-101.5 30.5q-82 20 -131 41.5t-78.5 61.5t-29.5 108q0 57 29 101.5t82.5 69.5t124.5 25q127 0 191 -59zM146 -211l129 162h80l-99 -162h-110z" />
    <glyph glyph-name="uni0162.ss01" horiz-adv-x="599" 
d="M346 630v-630h-93v630h-243v82h579v-82h-243zM144 -211l129 162h80l-99 -162h-110z" />
    <glyph glyph-name="aacute" unicode="&#xe1;" horiz-adv-x="531" 
d="M406.5 472.5q52.5 -49.5 52.5 -147.5v-195q0 -77 12 -130h-80q-7 32 -7 74h-2q-27 -41 -71 -63t-105 -22q-78 0 -125 41.5t-47 107.5t43.5 104.5t149.5 55.5q74 12 147 17v20q0 61 -30.5 90t-84.5 29t-84 -27.5t-32 -73.5h-88q4 75 57 122t147 47q95 0 147.5 -49.5z
M241 232q-64 -10 -90.5 -30t-26.5 -58q0 -40 27.5 -63.5t76.5 -23.5q31 0 58.5 10.5t46.5 29.5q23 24 32 49.5t9 70.5v31q-77 -6 -133 -16zM186 569l86 143h113l-123 -143h-76z" />
    <glyph glyph-name="abreve" unicode="&#x103;" horiz-adv-x="531" 
d="M406.5 472.5q52.5 -49.5 52.5 -147.5v-195q0 -77 12 -130h-80q-7 32 -7 74h-2q-27 -41 -71 -63t-105 -22q-78 0 -125 41.5t-47 107.5t43.5 104.5t149.5 55.5q74 12 147 17v20q0 61 -30.5 90t-84.5 29t-84 -27.5t-32 -73.5h-88q4 75 57 122t147 47q95 0 147.5 -49.5z
M241 232q-64 -10 -90.5 -30t-26.5 -58q0 -40 27.5 -63.5t76.5 -23.5q31 0 58.5 10.5t46.5 29.5q23 24 32 49.5t9 70.5v31q-77 -6 -133 -16zM362.5 606.5q-40.5 -37.5 -109.5 -37.5t-110 37.5t-46 105.5h66q4 -39 28 -60t62 -21t61.5 21t28.5 60h65q-5 -68 -45.5 -105.5z" />
    <glyph glyph-name="acircumflex" unicode="&#xe2;" horiz-adv-x="531" 
d="M406.5 472.5q52.5 -49.5 52.5 -147.5v-195q0 -77 12 -130h-80q-7 32 -7 74h-2q-27 -41 -71 -63t-105 -22q-78 0 -125 41.5t-47 107.5t43.5 104.5t149.5 55.5q74 12 147 17v20q0 61 -30.5 90t-84.5 29t-84 -27.5t-32 -73.5h-88q4 75 57 122t147 47q95 0 147.5 -49.5z
M241 232q-64 -10 -90.5 -30t-26.5 -58q0 -40 27.5 -63.5t76.5 -23.5q31 0 58.5 10.5t46.5 29.5q23 24 32 49.5t9 70.5v31q-77 -6 -133 -16zM253 662l-74 -93h-89l114 143h97l114 -143h-89z" />
    <glyph glyph-name="adieresis" unicode="&#xe4;" horiz-adv-x="531" 
d="M406.5 472.5q52.5 -49.5 52.5 -147.5v-195q0 -77 12 -130h-80q-7 32 -7 74h-2q-27 -41 -71 -63t-105 -22q-78 0 -125 41.5t-47 107.5t43.5 104.5t149.5 55.5q74 12 147 17v20q0 61 -30.5 90t-84.5 29t-84 -27.5t-32 -73.5h-88q4 75 57 122t147 47q95 0 147.5 -49.5z
M241 232q-64 -10 -90.5 -30t-26.5 -58q0 -40 27.5 -63.5t76.5 -23.5q31 0 58.5 10.5t46.5 29.5q23 24 32 49.5t9 70.5v31q-77 -6 -133 -16zM114 613v99h82v-99h-82zM309 613v99h82v-99h-82z" />
    <glyph glyph-name="agrave" unicode="&#xe0;" horiz-adv-x="531" 
d="M406.5 472.5q52.5 -49.5 52.5 -147.5v-195q0 -77 12 -130h-80q-7 32 -7 74h-2q-27 -41 -71 -63t-105 -22q-78 0 -125 41.5t-47 107.5t43.5 104.5t149.5 55.5q74 12 147 17v20q0 61 -30.5 90t-84.5 29t-84 -27.5t-32 -73.5h-88q4 75 57 122t147 47q95 0 147.5 -49.5z
M241 232q-64 -10 -90.5 -30t-26.5 -58q0 -40 27.5 -63.5t76.5 -23.5q31 0 58.5 10.5t46.5 29.5q23 24 32 49.5t9 70.5v31q-77 -6 -133 -16zM319 569h-76l-123 143h113z" />
    <glyph glyph-name="amacron" unicode="&#x101;" horiz-adv-x="531" 
d="M406.5 472.5q52.5 -49.5 52.5 -147.5v-195q0 -77 12 -130h-80q-7 32 -7 74h-2q-27 -41 -71 -63t-105 -22q-78 0 -125 41.5t-47 107.5t43.5 104.5t149.5 55.5q74 12 147 17v20q0 61 -30.5 90t-84.5 29t-84 -27.5t-32 -73.5h-88q4 75 57 122t147 47q95 0 147.5 -49.5z
M241 232q-64 -10 -90.5 -30t-26.5 -58q0 -40 27.5 -63.5t76.5 -23.5q31 0 58.5 10.5t46.5 29.5q23 24 32 49.5t9 70.5v31q-77 -6 -133 -16zM111 616v64h284v-64h-284z" />
    <glyph glyph-name="aogonek" unicode="&#x105;" horiz-adv-x="531" 
d="M474 -131v-53q-25 -10 -59 -10q-50 0 -74.5 21t-24.5 59q0 32 18.5 58.5t59.5 55.5h-3q-7 32 -7 74h-2q-27 -41 -71 -63t-105 -22q-78 0 -125 41.5t-47 107.5t43.5 104.5t149.5 55.5q74 12 147 17v20q0 61 -30.5 90t-84.5 29t-84 -27.5t-32 -73.5h-88q4 75 57 122t147 47
q95 0 147.5 -49.5t52.5 -147.5v-195q0 -77 12 -130q-42 -31 -59 -54.5t-17 -47.5q0 -36 40 -36q22 0 39 7zM241 232q-64 -10 -90.5 -30t-26.5 -58q0 -40 27.5 -63.5t76.5 -23.5q31 0 58.5 10.5t46.5 29.5q23 24 32 49.5t9 70.5v31q-77 -6 -133 -16z" />
    <glyph glyph-name="aring" unicode="&#xe5;" horiz-adv-x="531" 
d="M406.5 472.5q52.5 -49.5 52.5 -147.5v-195q0 -77 12 -130h-80q-7 32 -7 74h-2q-27 -41 -71 -63t-105 -22q-78 0 -125 41.5t-47 107.5t43.5 104.5t149.5 55.5q74 12 147 17v20q0 61 -30.5 90t-84.5 29t-84 -27.5t-32 -73.5h-88q4 75 57 122t147 47q95 0 147.5 -49.5z
M241 232q-64 -10 -90.5 -30t-26.5 -58q0 -40 27.5 -63.5t76.5 -23.5q31 0 58.5 10.5t46.5 29.5q23 24 32 49.5t9 70.5v31q-77 -6 -133 -16zM323.5 736.5q29.5 -29.5 29.5 -70.5q0 -42 -29.5 -71.5t-71.5 -29.5q-41 0 -70.5 29.5t-29.5 71.5q0 41 29.5 70.5t70.5 29.5
q42 0 71.5 -29.5zM212 707q-17 -17 -17 -41t17 -41t40 -17q25 0 41.5 16.5t16.5 41.5q0 24 -16.5 41t-41.5 17q-23 0 -40 -17z" />
    <glyph glyph-name="atilde" unicode="&#xe3;" horiz-adv-x="531" 
d="M406.5 472.5q52.5 -49.5 52.5 -147.5v-195q0 -77 12 -130h-80q-7 32 -7 74h-2q-27 -41 -71 -63t-105 -22q-78 0 -125 41.5t-47 107.5t43.5 104.5t149.5 55.5q74 12 147 17v20q0 61 -30.5 90t-84.5 29t-84 -27.5t-32 -73.5h-88q4 75 57 122t147 47q95 0 147.5 -49.5z
M241 232q-64 -10 -90.5 -30t-26.5 -58q0 -40 27.5 -63.5t76.5 -23.5q31 0 58.5 10.5t46.5 29.5q23 24 32 49.5t9 70.5v31q-77 -6 -133 -16zM396 621q-27 -30 -71 -30q-22 0 -40.5 7.5t-41.5 21.5q-22 12 -33.5 17t-24.5 5q-41 0 -46 -51h-58q3 55 30 85t71 30
q22 0 40.5 -7.5t41.5 -21.5q22 -12 33.5 -17t24.5 -5q40 0 46 51h58q-3 -55 -30 -85z" />
    <glyph glyph-name="ae" unicode="&#xe6;" horiz-adv-x="862" 
d="M684 81q33 27 42 71h90q-13 -71 -69.5 -118.5t-146.5 -47.5q-63 0 -110 28t-75 80q-28 -52 -80 -80t-120 -28q-82 0 -131.5 42.5t-49.5 110.5q0 77 54.5 119t179.5 42h110v35q0 60 -30.5 89.5t-86.5 29.5q-54 0 -84.5 -27.5t-33.5 -73.5h-88q5 75 58.5 122t147.5 47
q123 0 168 -82q28 39 71 60.5t97 21.5q81 0 138 -48t76 -130q10 -43 10 -111h-364q4 -89 43 -134t100 -45q51 0 84 27zM501 413.5q-37 -40.5 -43 -113.5h276q-4 74 -41.5 114t-95.5 40q-59 0 -96 -40.5zM278 233q-84 0 -119 -22.5t-35 -68.5q0 -40 28 -64t78 -24
q32 0 60 10.5t46 30.5q24 24 33 50.5t9 71.5v16h-100z" />
    <glyph glyph-name="cacute" unicode="&#x107;" horiz-adv-x="534" 
d="M387.5 497.5q47.5 -24.5 76 -68.5t33.5 -101h-92q-5 54 -39.5 88t-86.5 34q-67 0 -106 -52.5t-39 -143.5t38.5 -143.5t106.5 -52.5q52 0 86.5 36.5t39.5 92.5h92q-5 -58 -33 -103.5t-75.5 -71.5t-108.5 -26q-73 0 -127 32.5t-83 93t-29 142.5t29 142.5t83 93t127 32.5
q60 0 107.5 -24.5zM213 569l86 143h113l-123 -143h-76z" />
    <glyph glyph-name="ccaron" unicode="&#x10d;" horiz-adv-x="534" 
d="M387.5 497.5q47.5 -24.5 76 -68.5t33.5 -101h-92q-5 54 -39.5 88t-86.5 34q-67 0 -106 -52.5t-39 -143.5t38.5 -143.5t106.5 -52.5q52 0 86.5 36.5t39.5 92.5h92q-5 -58 -33 -103.5t-75.5 -71.5t-108.5 -26q-73 0 -127 32.5t-83 93t-29 142.5t29 142.5t83 93t127 32.5
q60 0 107.5 -24.5zM231 569l-114 143h89l74 -93l73 93h89l-114 -143h-97z" />
    <glyph glyph-name="ccedilla" unicode="&#xe7;" horiz-adv-x="534" 
d="M365.5 94.5q34.5 36.5 39.5 92.5h92q-7 -80 -56.5 -134.5t-127.5 -64.5l-32 -50q18 3 26 3q33 0 56.5 -20.5t23.5 -53.5q0 -37 -28.5 -62t-81.5 -25q-54 0 -105 27l18 37q36 -21 78 -21q27 0 41.5 10.5t14.5 30.5q0 19 -14.5 30.5t-38.5 11.5q-17 0 -31 -6l-18 20l44 66
q-104 5 -164.5 76.5t-60.5 191.5q0 82 29 142.5t83 93t127 32.5q60 0 107.5 -24.5t76 -68.5t33.5 -101h-92q-5 54 -39.5 88t-86.5 34q-67 0 -106 -52.5t-39 -143.5t38.5 -143.5t106.5 -52.5q52 0 86.5 36.5z" />
    <glyph glyph-name="ccircumflex" unicode="&#x109;" horiz-adv-x="534" 
d="M387.5 497.5q47.5 -24.5 76 -68.5t33.5 -101h-92q-5 54 -39.5 88t-86.5 34q-67 0 -106 -52.5t-39 -143.5t38.5 -143.5t106.5 -52.5q52 0 86.5 36.5t39.5 92.5h92q-5 -58 -33 -103.5t-75.5 -71.5t-108.5 -26q-73 0 -127 32.5t-83 93t-29 142.5t29 142.5t83 93t127 32.5
q60 0 107.5 -24.5zM280 662l-74 -93h-89l114 143h97l114 -143h-89z" />
    <glyph glyph-name="cdotaccent" unicode="&#x10b;" horiz-adv-x="534" 
d="M387.5 497.5q47.5 -24.5 76 -68.5t33.5 -101h-92q-5 54 -39.5 88t-86.5 34q-67 0 -106 -52.5t-39 -143.5t38.5 -143.5t106.5 -52.5q52 0 86.5 36.5t39.5 92.5h92q-5 -58 -33 -103.5t-75.5 -71.5t-108.5 -26q-73 0 -127 32.5t-83 93t-29 142.5t29 142.5t83 93t127 32.5
q60 0 107.5 -24.5zM235 613v99h88v-99h-88z" />
    <glyph glyph-name="eth" unicode="&#xf0;" horiz-adv-x="566" 
d="M499.5 400q24.5 -67 24.5 -144q0 -125 -64.5 -197.5t-176.5 -72.5t-177 70.5t-65 192.5q0 121 60.5 191.5t164.5 70.5q61 0 104 -35v2q-44 59 -110 117l-134 -60l-21 49l109 49q-37 29 -70 51l65 42q46 -31 80 -59l123 55l22 -49l-100 -45q56 -49 90 -94
q51 -67 75.5 -134zM392 110q40 52 40 143q0 90 -40 142t-110 52q-69 0 -109 -52t-40 -142q0 -91 40 -143t109 -52q70 0 110 52z" />
    <glyph glyph-name="dcaron" unicode="&#x10f;" 
d="M412 0v74h-2q-21 -40 -62.5 -63t-93.5 -23q-64 0 -112.5 33t-74.5 93.5t-26 140.5t26 140.5t74 93t112 32.5q51 0 92.5 -22.5t62.5 -60.5h2v274h88v-712h-86zM172 397q-39 -53 -39 -142t39 -142.5t104 -53.5q63 0 101 53t38 143t-38 142.5t-101 52.5q-65 0 -104 -53z
M532 536l29 176h80l-55 -176h-54z" />
    <glyph glyph-name="dcroat" unicode="&#x111;" horiz-adv-x="570" 
d="M498 580v-580h-86v74h-2q-21 -40 -62.5 -63t-93.5 -23q-64 0 -112.5 33t-74.5 93.5t-26 140.5t26 140.5t74 93t112 32.5q51 0 92.5 -22.5t62.5 -60.5h2v142h-131v55h131v77h88v-77h65v-55h-65zM377 112q38 53 38 143t-38 142.5t-101 52.5q-65 0 -104 -53t-39 -142
t39 -142.5t104 -53.5q63 0 101 53z" />
    <glyph glyph-name="eacute" unicode="&#xe9;" horiz-adv-x="550" 
d="M369.5 81q35.5 27 44.5 71h90q-14 -71 -72.5 -118.5t-151.5 -47.5q-74 0 -128 34t-82.5 96t-28.5 145q0 75 28.5 134.5t82 93t125.5 33.5q85 0 143.5 -47t78.5 -130q10 -41 10 -109h-380q3 -90 44.5 -136t106.5 -46q54 0 89.5 27zM176 414.5q-39 -39.5 -46 -111.5h292
q-7 73 -46 112t-99 39q-62 0 -101 -39.5zM208 569l86 143h113l-123 -143h-76z" />
    <glyph glyph-name="ebreve" unicode="&#x115;" horiz-adv-x="550" 
d="M369.5 81q35.5 27 44.5 71h90q-14 -71 -72.5 -118.5t-151.5 -47.5q-74 0 -128 34t-82.5 96t-28.5 145q0 75 28.5 134.5t82 93t125.5 33.5q85 0 143.5 -47t78.5 -130q10 -41 10 -109h-380q3 -90 44.5 -136t106.5 -46q54 0 89.5 27zM176 414.5q-39 -39.5 -46 -111.5h292
q-7 73 -46 112t-99 39q-62 0 -101 -39.5zM384.5 606.5q-40.5 -37.5 -109.5 -37.5t-110 37.5t-46 105.5h66q4 -39 28 -60t62 -21t61.5 21t28.5 60h65q-5 -68 -45.5 -105.5z" />
    <glyph glyph-name="ecaron" unicode="&#x11b;" horiz-adv-x="550" 
d="M369.5 81q35.5 27 44.5 71h90q-14 -71 -72.5 -118.5t-151.5 -47.5q-74 0 -128 34t-82.5 96t-28.5 145q0 75 28.5 134.5t82 93t125.5 33.5q85 0 143.5 -47t78.5 -130q10 -41 10 -109h-380q3 -90 44.5 -136t106.5 -46q54 0 89.5 27zM176 414.5q-39 -39.5 -46 -111.5h292
q-7 73 -46 112t-99 39q-62 0 -101 -39.5zM226 569l-114 143h89l74 -93l73 93h89l-114 -143h-97z" />
    <glyph glyph-name="ecircumflex" unicode="&#xea;" horiz-adv-x="550" 
d="M369.5 81q35.5 27 44.5 71h90q-14 -71 -72.5 -118.5t-151.5 -47.5q-74 0 -128 34t-82.5 96t-28.5 145q0 75 28.5 134.5t82 93t125.5 33.5q85 0 143.5 -47t78.5 -130q10 -41 10 -109h-380q3 -90 44.5 -136t106.5 -46q54 0 89.5 27zM176 414.5q-39 -39.5 -46 -111.5h292
q-7 73 -46 112t-99 39q-62 0 -101 -39.5zM275 662l-74 -93h-89l114 143h97l114 -143h-89z" />
    <glyph glyph-name="edieresis" unicode="&#xeb;" horiz-adv-x="550" 
d="M369.5 81q35.5 27 44.5 71h90q-14 -71 -72.5 -118.5t-151.5 -47.5q-74 0 -128 34t-82.5 96t-28.5 145q0 75 28.5 134.5t82 93t125.5 33.5q85 0 143.5 -47t78.5 -130q10 -41 10 -109h-380q3 -90 44.5 -136t106.5 -46q54 0 89.5 27zM176 414.5q-39 -39.5 -46 -111.5h292
q-7 73 -46 112t-99 39q-62 0 -101 -39.5zM136 613v99h82v-99h-82zM331 613v99h82v-99h-82z" />
    <glyph glyph-name="edotaccent" unicode="&#x117;" horiz-adv-x="550" 
d="M369.5 81q35.5 27 44.5 71h90q-14 -71 -72.5 -118.5t-151.5 -47.5q-74 0 -128 34t-82.5 96t-28.5 145q0 75 28.5 134.5t82 93t125.5 33.5q85 0 143.5 -47t78.5 -130q10 -41 10 -109h-380q3 -90 44.5 -136t106.5 -46q54 0 89.5 27zM176 414.5q-39 -39.5 -46 -111.5h292
q-7 73 -46 112t-99 39q-62 0 -101 -39.5zM230 613v99h88v-99h-88z" />
    <glyph glyph-name="egrave" unicode="&#xe8;" horiz-adv-x="550" 
d="M369.5 81q35.5 27 44.5 71h90q-14 -71 -72.5 -118.5t-151.5 -47.5q-74 0 -128 34t-82.5 96t-28.5 145q0 75 28.5 134.5t82 93t125.5 33.5q85 0 143.5 -47t78.5 -130q10 -41 10 -109h-380q3 -90 44.5 -136t106.5 -46q54 0 89.5 27zM176 414.5q-39 -39.5 -46 -111.5h292
q-7 73 -46 112t-99 39q-62 0 -101 -39.5zM341 569h-76l-123 143h113z" />
    <glyph glyph-name="emacron" unicode="&#x113;" horiz-adv-x="550" 
d="M369.5 81q35.5 27 44.5 71h90q-14 -71 -72.5 -118.5t-151.5 -47.5q-74 0 -128 34t-82.5 96t-28.5 145q0 75 28.5 134.5t82 93t125.5 33.5q85 0 143.5 -47t78.5 -130q10 -41 10 -109h-380q3 -90 44.5 -136t106.5 -46q54 0 89.5 27zM176 414.5q-39 -39.5 -46 -111.5h292
q-7 73 -46 112t-99 39q-62 0 -101 -39.5zM132 616v64h284v-64h-284z" />
    <glyph glyph-name="eogonek" unicode="&#x119;" horiz-adv-x="550" 
d="M369.5 81q35.5 27 44.5 71h90q-7 -37 -25.5 -67.5t-51.5 -60.5q-45 -40 -62.5 -67t-17.5 -55q0 -19 10.5 -29.5t30.5 -10.5q22 0 39 7v-53q-25 -10 -59 -10q-50 0 -74.5 21t-24.5 59q0 54 53 102v2q-26 -4 -42 -4q-74 0 -128 34t-82.5 96t-28.5 145q0 75 28.5 134.5
t82 93t125.5 33.5q85 0 143.5 -47t78.5 -130q10 -41 10 -109h-380q3 -90 44.5 -136t106.5 -46q54 0 89.5 27zM176 414.5q-39 -39.5 -46 -111.5h292q-7 73 -46 112t-99 39q-62 0 -101 -39.5z" />
    <glyph glyph-name="gbreve" unicode="&#x11f;" horiz-adv-x="573" 
d="M408 434h2v74h85v-477q0 -111 -57 -167.5t-165 -56.5q-97 0 -152.5 43t-57.5 118h88q2 -44 34.5 -68.5t88.5 -24.5q69 0 102 38t33 122v55h-2q-55 -85 -151 -85q-65 0 -113.5 32t-75 90.5t-26.5 135.5q0 78 26.5 136.5t75 90t113.5 31.5q100 0 152 -87zM170.5 397.5
q-37.5 -50.5 -37.5 -134.5q0 -83 37.5 -133.5t99.5 -50.5q66 0 104 49.5t38 134.5q0 86 -38 135.5t-104 49.5q-62 0 -99.5 -50.5zM384.5 606.5q-40.5 -37.5 -109.5 -37.5t-110 37.5t-46 105.5h66q4 -39 28 -60t62 -21t61.5 21t28.5 60h65q-5 -68 -45.5 -105.5z" />
    <glyph glyph-name="gcircumflex" unicode="&#x11d;" horiz-adv-x="573" 
d="M408 434h2v74h85v-477q0 -111 -57 -167.5t-165 -56.5q-97 0 -152.5 43t-57.5 118h88q2 -44 34.5 -68.5t88.5 -24.5q69 0 102 38t33 122v55h-2q-55 -85 -151 -85q-65 0 -113.5 32t-75 90.5t-26.5 135.5q0 78 26.5 136.5t75 90t113.5 31.5q100 0 152 -87zM170.5 397.5
q-37.5 -50.5 -37.5 -134.5q0 -83 37.5 -133.5t99.5 -50.5q66 0 104 49.5t38 134.5q0 86 -38 135.5t-104 49.5q-62 0 -99.5 -50.5zM275 662l-74 -93h-89l114 143h97l114 -143h-89z" />
    <glyph glyph-name="gcommaaccent" unicode="&#x123;" horiz-adv-x="573" 
d="M408 434h2v74h85v-477q0 -111 -57 -167.5t-165 -56.5q-97 0 -152.5 43t-57.5 118h88q2 -44 34.5 -68.5t88.5 -24.5q69 0 102 38t33 122v55h-2q-55 -85 -151 -85q-65 0 -113.5 32t-75 90.5t-26.5 135.5q0 78 26.5 136.5t75 90t113.5 31.5q100 0 152 -87zM170.5 397.5
q-37.5 -50.5 -37.5 -134.5q0 -83 37.5 -133.5t99.5 -50.5q66 0 104 49.5t38 134.5q0 86 -38 135.5t-104 49.5q-62 0 -99.5 -50.5zM317 672v-89h-89v89l55 103h38l-38 -103h34z" />
    <glyph glyph-name="gdotaccent" unicode="&#x121;" horiz-adv-x="573" 
d="M408 434h2v74h85v-477q0 -111 -57 -167.5t-165 -56.5q-97 0 -152.5 43t-57.5 118h88q2 -44 34.5 -68.5t88.5 -24.5q69 0 102 38t33 122v55h-2q-55 -85 -151 -85q-65 0 -113.5 32t-75 90.5t-26.5 135.5q0 78 26.5 136.5t75 90t113.5 31.5q100 0 152 -87zM170.5 397.5
q-37.5 -50.5 -37.5 -134.5q0 -83 37.5 -133.5t99.5 -50.5q66 0 104 49.5t38 134.5q0 86 -38 135.5t-104 49.5q-62 0 -99.5 -50.5zM230 613v99h88v-99h-88z" />
    <glyph glyph-name="hbar" unicode="&#x127;" 
d="M455 466q48 -53 48 -156v-310h-88v303q0 77 -30 110.5t-87 33.5t-94.5 -41t-37.5 -115v-291h-88v580h-71v52h71v80h88v-80h125v-52h-125v-136h2q25 37 65 56t86 19q88 0 136 -53z" />
    <glyph glyph-name="hcircumflex" unicode="&#x125;" 
d="M168 444q25 37 65 56t86 19q88 0 136 -53t48 -156v-310h-88v303q0 77 -30 110.5t-87 33.5t-94.5 -41t-37.5 -115v-291h-88v712h88v-268h2zM336 898l114 -138h-89l-74 89l-73 -89h-89l114 138h97z" />
    <glyph glyph-name="dotlessi" unicode="&#x131;" horiz-adv-x="244" 
d="M78 0v508h88v-508h-88z" />
    <glyph glyph-name="iacute" unicode="&#xed;" horiz-adv-x="244" 
d="M78 0v508h88v-508h-88zM56 569l86 143h113l-123 -143h-76z" />
    <glyph glyph-name="ibreve" unicode="&#x12d;" horiz-adv-x="244" 
d="M78 0v508h88v-508h-88zM221.5 606.5q-36.5 -37.5 -99.5 -37.5t-99.5 37.5t-39.5 105.5h63q3 -40 22.5 -61t53.5 -21t53.5 21t22.5 61h63q-3 -68 -39.5 -105.5z" />
    <glyph glyph-name="icircumflex" unicode="&#xee;" horiz-adv-x="244" 
d="M78 0v508h88v-508h-88zM185 570l-63 93l-62 -93h-86l100 142h96l100 -142h-85z" />
    <glyph glyph-name="idieresis" unicode="&#xef;" horiz-adv-x="244" 
d="M78 0v508h88v-508h-88zM4 613v99h82v-99h-82zM158 613v99h81v-99h-81z" />
    <glyph glyph-name="i.loclTRK" horiz-adv-x="244" 
d="M78 0v508h88v-508h-88zM78 613v99h88v-99h-88z" />
    <glyph glyph-name="igrave" unicode="&#xec;" horiz-adv-x="244" 
d="M78 0v508h88v-508h-88zM189 569h-76l-123 143h113z" />
    <glyph glyph-name="ij" unicode="&#x133;" horiz-adv-x="493" 
d="M78 613v99h88v-99h-88zM327 613v99h88v-99h-88zM78 0v508h88v-508h-88zM376.5 -150.5q-38.5 -38.5 -107.5 -38.5q-28 0 -47 5v70q15 -3 29 -3q39 0 57.5 21.5t18.5 74.5v529h88v-537q0 -83 -38.5 -121.5z" />
    <glyph glyph-name="imacron" unicode="&#x12b;" horiz-adv-x="244" 
d="M78 0v508h88v-508h-88zM-6 617v65h257v-65h-257z" />
    <glyph glyph-name="iogonek" unicode="&#x12f;" horiz-adv-x="244" 
d="M78 613v99h88v-99h-88zM169 -131v-53q-25 -10 -59 -10q-50 0 -74.5 21t-24.5 59q0 32 18.5 58.5t59.5 55.5h-11v508h88v-508q-42 -31 -59 -54.5t-17 -47.5q0 -36 40 -36q22 0 39 7z" />
    <glyph glyph-name="itilde" unicode="&#x129;" horiz-adv-x="244" 
d="M78 0v508h88v-508h-88zM246.5 621q-24.5 -30 -66.5 -30q-20 0 -34 7.5t-35 22.5q-18 12 -27 17t-20 5q-37 0 -42 -52h-51q2 55 26.5 85t66.5 30q20 0 34 -7.5t35 -22.5q16 -12 26 -17.5t21 -5.5q19 0 29 13t12 40h52q-2 -55 -26.5 -85z" />
    <glyph glyph-name="dotlessj" unicode="&#x237;" horiz-adv-x="249" 
d="M132.5 -150.5q-38.5 -38.5 -107.5 -38.5q-28 0 -47 5v70q15 -3 29 -3q39 0 57.5 21.5t18.5 74.5v529h88v-537q0 -83 -38.5 -121.5z" />
    <glyph glyph-name="jcircumflex" unicode="&#x135;" horiz-adv-x="249" 
d="M132.5 -150.5q-38.5 -38.5 -107.5 -38.5q-28 0 -47 5v70q15 -3 29 -3q39 0 57.5 21.5t18.5 74.5v529h88v-537q0 -83 -38.5 -121.5zM190 570l-63 93l-62 -93h-86l100 142h96l100 -142h-85z" />
    <glyph glyph-name="kcommaaccent" unicode="&#x137;" horiz-adv-x="500" 
d="M393 0l-225 254h-2v-254h-88v712h88v-415h2l205 211h109l-228 -230l255 -278h-116zM263 -257h-38l38 103h-34v89h89v-89z" />
    <glyph glyph-name="kgreenlandic" unicode="&#x138;" horiz-adv-x="517" 
d="M393 0l-225 254h-2v-254h-88v508h88v-211h2l205 211h109l-228 -230l255 -278h-116z" />
    <glyph glyph-name="lacute" unicode="&#x13a;" horiz-adv-x="244" 
d="M78 0v712h88v-712h-88zM75 773l86 143h113l-123 -143h-76z" />
    <glyph glyph-name="lcaron" unicode="&#x13e;" horiz-adv-x="244" 
d="M78 0v712h88v-712h-88zM202 536l29 176h80l-55 -176h-54z" />
    <glyph glyph-name="lcommaaccent" unicode="&#x13c;" horiz-adv-x="244" 
d="M78 0v712h88v-712h-88zM111 -257h-38l38 103h-34v89h89v-89z" />
    <glyph glyph-name="ldot" unicode="&#x140;" horiz-adv-x="399" 
d="M78 0v712h88v-712h-88zM267 297v117h108v-117h-108z" />
    <glyph glyph-name="lslash" unicode="&#x142;" horiz-adv-x="285" 
d="M187 378v-378h-88v335l-89 -52v78l89 53v298h88v-256l88 53v-79z" />
    <glyph glyph-name="nacute" unicode="&#x144;" 
d="M455 466q48 -53 48 -156v-310h-88v303q0 77 -30 110.5t-87 33.5t-94.5 -41t-37.5 -115v-291h-88v508h85v-67h2q24 36 64 57t90 21q88 0 136 -53zM224 569l86 143h113l-123 -143h-76z" />
    <glyph glyph-name="napostrophe" unicode="&#x149;" horiz-adv-x="694" 
d="M120 470h-53l35 134h-33v108h99v-108zM574 466q48 -53 48 -156v-310h-88v303q0 77 -30 110.5t-87 33.5t-94.5 -41t-37.5 -115v-291h-88v508h85v-67h2q24 36 64 57t90 21q88 0 136 -53z" />
    <glyph glyph-name="ncaron" unicode="&#x148;" 
d="M455 466q48 -53 48 -156v-310h-88v303q0 77 -30 110.5t-87 33.5t-94.5 -41t-37.5 -115v-291h-88v508h85v-67h2q24 36 64 57t90 21q88 0 136 -53zM242 569l-114 143h89l74 -93l73 93h89l-114 -143h-97z" />
    <glyph glyph-name="ncommaaccent" unicode="&#x146;" 
d="M455 466q48 -53 48 -156v-310h-88v303q0 77 -30 110.5t-87 33.5t-94.5 -41t-37.5 -115v-291h-88v508h85v-67h2q24 36 64 57t90 21q88 0 136 -53zM280 -257h-38l38 103h-34v89h89v-89z" />
    <glyph glyph-name="eng" unicode="&#x14b;" 
d="M452 470q28 -28 39.5 -67.5t11.5 -103.5v-333q0 -155 -147 -155q-22 0 -47 5v70q15 -3 29 -3q39 0 58 20.5t19 69.5v319q0 49 -7 76.5t-24 46.5q-31 32 -86 32q-56 0 -94 -41t-38 -114v-292h-88v508h85v-68h2q27 40 68 60t88 20q81 0 131 -50z" />
    <glyph glyph-name="ntilde" unicode="&#xf1;" 
d="M455 466q48 -53 48 -156v-310h-88v303q0 77 -30 110.5t-87 33.5t-94.5 -41t-37.5 -115v-291h-88v508h85v-67h2q24 36 64 57t90 21q88 0 136 -53zM433 621q-27 -30 -71 -30q-22 0 -40.5 7.5t-41.5 21.5q-22 12 -33.5 17t-24.5 5q-41 0 -46 -51h-58q3 55 30 85t71 30
q22 0 40.5 -7.5t41.5 -21.5q22 -12 33.5 -17t24.5 -5q40 0 46 51h58q-3 -55 -30 -85z" />
    <glyph glyph-name="oacute" unicode="&#xf3;" horiz-adv-x="565" 
d="M459 450q65 -72 65 -196t-65 -196t-177 -72t-176.5 72t-64.5 196t64.5 196t176.5 72t177 -72zM173 397.5q-40 -52.5 -40 -143.5t40 -143.5t109 -52.5q70 0 110 52.5t40 143.5t-40 143.5t-110 52.5q-69 0 -109 -52.5zM216 569l86 143h113l-123 -143h-76z" />
    <glyph glyph-name="obreve" unicode="&#x14f;" horiz-adv-x="565" 
d="M459 450q65 -72 65 -196t-65 -196t-177 -72t-176.5 72t-64.5 196t64.5 196t176.5 72t177 -72zM173 397.5q-40 -52.5 -40 -143.5t40 -143.5t109 -52.5q70 0 110 52.5t40 143.5t-40 143.5t-110 52.5q-69 0 -109 -52.5zM392.5 606.5q-40.5 -37.5 -109.5 -37.5t-110 37.5
t-46 105.5h66q4 -39 28 -60t62 -21t61.5 21t28.5 60h65q-5 -68 -45.5 -105.5z" />
    <glyph glyph-name="ocircumflex" unicode="&#xf4;" horiz-adv-x="565" 
d="M459 450q65 -72 65 -196t-65 -196t-177 -72t-176.5 72t-64.5 196t64.5 196t176.5 72t177 -72zM173 397.5q-40 -52.5 -40 -143.5t40 -143.5t109 -52.5q70 0 110 52.5t40 143.5t-40 143.5t-110 52.5q-69 0 -109 -52.5zM283 662l-74 -93h-89l114 143h97l114 -143h-89z" />
    <glyph glyph-name="odieresis" unicode="&#xf6;" horiz-adv-x="565" 
d="M459 450q65 -72 65 -196t-65 -196t-177 -72t-176.5 72t-64.5 196t64.5 196t176.5 72t177 -72zM173 397.5q-40 -52.5 -40 -143.5t40 -143.5t109 -52.5q70 0 110 52.5t40 143.5t-40 143.5t-110 52.5q-69 0 -109 -52.5zM144 613v99h82v-99h-82zM339 613v99h82v-99h-82z" />
    <glyph glyph-name="ograve" unicode="&#xf2;" horiz-adv-x="565" 
d="M459 450q65 -72 65 -196t-65 -196t-177 -72t-176.5 72t-64.5 196t64.5 196t176.5 72t177 -72zM173 397.5q-40 -52.5 -40 -143.5t40 -143.5t109 -52.5q70 0 110 52.5t40 143.5t-40 143.5t-110 52.5q-69 0 -109 -52.5zM349 569h-76l-123 143h113z" />
    <glyph glyph-name="ohungarumlaut" unicode="&#x151;" horiz-adv-x="565" 
d="M459 450q65 -72 65 -196t-65 -196t-177 -72t-176.5 72t-64.5 196t64.5 196t176.5 72t177 -72zM173 397.5q-40 -52.5 -40 -143.5t40 -143.5t109 -52.5q70 0 110 52.5t40 143.5t-40 143.5t-110 52.5q-69 0 -109 -52.5zM144 569l106 143h104l-136 -143h-74zM304 569l106 143
h104l-136 -143h-74z" />
    <glyph glyph-name="omacron" unicode="&#x14d;" horiz-adv-x="565" 
d="M459 450q65 -72 65 -196t-65 -196t-177 -72t-176.5 72t-64.5 196t64.5 196t176.5 72t177 -72zM173 397.5q-40 -52.5 -40 -143.5t40 -143.5t109 -52.5q70 0 110 52.5t40 143.5t-40 143.5t-110 52.5q-69 0 -109 -52.5zM140 616v64h284v-64h-284z" />
    <glyph glyph-name="oslash" unicode="&#xf8;" horiz-adv-x="566" 
d="M508.5 362q15.5 -49 15.5 -108q0 -124 -65 -196t-177 -72q-82 0 -138 38l-51 -66l-43 33l53 70q-62 71 -62 193q0 124 64.5 196t176.5 72q81 0 139 -39l52 68l43 -35l-53 -70q30 -35 45.5 -84zM171 399q-41 -53 -41 -145q0 -73 26 -122l218 288q-37 32 -92 32
q-70 0 -111 -53zM394 109q41 53 41 145q0 71 -27 122l-217 -289q37 -31 91 -31q71 0 112 53z" />
    <glyph glyph-name="otilde" unicode="&#xf5;" horiz-adv-x="565" 
d="M459 450q65 -72 65 -196t-65 -196t-177 -72t-176.5 72t-64.5 196t64.5 196t176.5 72t177 -72zM173 397.5q-40 -52.5 -40 -143.5t40 -143.5t109 -52.5q70 0 110 52.5t40 143.5t-40 143.5t-110 52.5q-69 0 -109 -52.5zM425 621q-27 -30 -71 -30q-22 0 -40.5 7.5t-41.5 21.5
q-22 12 -33.5 17t-24.5 5q-41 0 -46 -51h-58q3 55 30 85t71 30q22 0 40.5 -7.5t41.5 -21.5q22 -12 33.5 -17t24.5 -5q40 0 46 51h58q-3 -55 -30 -85z" />
    <glyph glyph-name="oe" unicode="&#x153;" horiz-adv-x="897" 
d="M719 81q33 27 42 71h90q-13 -71 -69.5 -118.5t-146.5 -47.5q-61 0 -107.5 26.5t-74.5 76.5q-28 -50 -74.5 -76.5t-106.5 -26.5q-107 0 -169 72t-62 196t62 196t169 72q60 0 106 -26.5t75 -75.5q28 48 73.5 75t105.5 27q81 0 138 -47.5t76 -129.5q10 -41 10 -109h-364
q3 -90 42 -136t101 -46q51 0 84 27zM537 414.5q-37 -39.5 -44 -111.5h276q-7 73 -43.5 112t-93.5 39q-58 0 -95 -39.5zM374.5 110.5q37.5 52.5 37.5 143.5t-37.5 143.5t-102.5 52.5q-64 0 -101.5 -52.5t-37.5 -143.5t37.5 -143.5t101.5 -52.5q65 0 102.5 52.5z" />
    <glyph glyph-name="thorn" unicode="&#xfe;" 
d="M168 438q21 38 62 60.5t92 22.5q64 0 112.5 -32.5t74.5 -93t26 -140.5t-26 -140.5t-74 -93.5t-112 -33q-51 0 -92.5 22.5t-62.5 61.5h-2v-257h-88v897h88v-274h2zM199.5 397.5q-37.5 -52.5 -37.5 -142.5t37.5 -143t100.5 -53q65 0 104 53.5t39 142.5t-39 142t-104 53
q-63 0 -100.5 -52.5z" />
    <glyph glyph-name="racute" unicode="&#x155;" horiz-adv-x="362" 
d="M351 509v-79q-33 3 -35 3q-72 0 -111 -45t-39 -129v-259h-88v508h84v-78h2q50 83 150 83q22 0 37 -4zM140 569l86 143h113l-123 -143h-76z" />
    <glyph glyph-name="rcaron" unicode="&#x159;" horiz-adv-x="362" 
d="M351 509v-79q-33 3 -35 3q-72 0 -111 -45t-39 -129v-259h-88v508h84v-78h2q50 83 150 83q22 0 37 -4zM158 569l-114 143h89l74 -93l73 93h89l-114 -143h-97z" />
    <glyph glyph-name="rcommaaccent" unicode="&#x157;" horiz-adv-x="362" 
d="M351 509v-79q-33 3 -35 3q-72 0 -111 -45t-39 -129v-259h-88v508h84v-78h2q50 83 150 83q22 0 37 -4zM111 -257h-38l38 103h-34v89h89v-89z" />
    <glyph glyph-name="sacute" unicode="&#x15b;" horiz-adv-x="494" 
d="M385 477q52 -45 52 -128h-86q0 51 -29.5 78t-83.5 27q-46 0 -72.5 -19.5t-26.5 -52.5q0 -26 12.5 -40t35.5 -22t74 -20q66 -16 102.5 -30t63 -45.5t26.5 -86.5q0 -69 -54.5 -110.5t-146.5 -41.5q-101 0 -156.5 47t-56.5 136h89q0 -54 32.5 -83.5t92.5 -29.5q50 0 80 21
t30 55q0 29 -14 45t-41 25.5t-85 23.5q-61 15 -93 27.5t-55.5 41t-23.5 80.5q0 65 52.5 106t135.5 41q94 0 146 -45zM172 569l86 143h113l-123 -143h-76z" />
    <glyph glyph-name="scaron" unicode="&#x161;" horiz-adv-x="494" 
d="M385 477q52 -45 52 -128h-86q0 51 -29.5 78t-83.5 27q-46 0 -72.5 -19.5t-26.5 -52.5q0 -26 12.5 -40t35.5 -22t74 -20q66 -16 102.5 -30t63 -45.5t26.5 -86.5q0 -69 -54.5 -110.5t-146.5 -41.5q-101 0 -156.5 47t-56.5 136h89q0 -54 32.5 -83.5t92.5 -29.5q50 0 80 21
t30 55q0 29 -14 45t-41 25.5t-85 23.5q-61 15 -93 27.5t-55.5 41t-23.5 80.5q0 65 52.5 106t135.5 41q94 0 146 -45zM190 569l-114 143h89l74 -93l73 93h89l-114 -143h-97z" />
    <glyph glyph-name="scedilla" unicode="&#x15f;" horiz-adv-x="494" 
d="M407.5 35.5q-45.5 -40.5 -123.5 -48.5l-32 -49q18 3 26 3q33 0 56.5 -20.5t23.5 -53.5q0 -37 -28.5 -62t-81.5 -25q-54 0 -105 27l18 37q36 -21 78 -21q27 0 41.5 10.5t14.5 30.5q0 19 -14.5 30.5t-38.5 11.5q-18 0 -31 -6l-18 20l44 66q-94 4 -145.5 51t-52.5 132h89
q0 -54 32.5 -83.5t92.5 -29.5q50 0 80 21t30 55q0 29 -14 45t-41 25.5t-85 23.5q-61 15 -93 27.5t-55.5 41t-23.5 80.5q0 65 52.5 106t135.5 41q94 0 146 -45t52 -128h-86q0 51 -29.5 78t-83.5 27q-46 0 -72.5 -19.5t-26.5 -52.5q0 -26 12.5 -40t35.5 -22t74 -20
q66 -16 102.5 -30t63 -45.5t26.5 -86.5q0 -62 -45.5 -102.5z" />
    <glyph glyph-name="scircumflex" unicode="&#x15d;" horiz-adv-x="494" 
d="M385 477q52 -45 52 -128h-86q0 51 -29.5 78t-83.5 27q-46 0 -72.5 -19.5t-26.5 -52.5q0 -26 12.5 -40t35.5 -22t74 -20q66 -16 102.5 -30t63 -45.5t26.5 -86.5q0 -69 -54.5 -110.5t-146.5 -41.5q-101 0 -156.5 47t-56.5 136h89q0 -54 32.5 -83.5t92.5 -29.5q50 0 80 21
t30 55q0 29 -14 45t-41 25.5t-85 23.5q-61 15 -93 27.5t-55.5 41t-23.5 80.5q0 65 52.5 106t135.5 41q94 0 146 -45zM239 662l-74 -93h-89l114 143h97l114 -143h-89z" />
    <glyph glyph-name="scommaaccent" unicode="&#x219;" horiz-adv-x="494" 
d="M385 477q52 -45 52 -128h-86q0 51 -29.5 78t-83.5 27q-46 0 -72.5 -19.5t-26.5 -52.5q0 -26 12.5 -40t35.5 -22t74 -20q66 -16 102.5 -30t63 -45.5t26.5 -86.5q0 -69 -54.5 -110.5t-146.5 -41.5q-101 0 -156.5 47t-56.5 136h89q0 -54 32.5 -83.5t92.5 -29.5q50 0 80 21
t30 55q0 29 -14 45t-41 25.5t-85 23.5q-61 15 -93 27.5t-55.5 41t-23.5 80.5q0 65 52.5 106t135.5 41q94 0 146 -45zM240 -257h-38l38 103h-34v89h89v-89z" />
    <glyph glyph-name="germandbls" unicode="&#xdf;" horiz-adv-x="557" 
d="M429.5 679q54.5 -47 54.5 -125q0 -117 -115 -155v-2q70 -13 109.5 -62t39.5 -128q0 -100 -62 -156.5t-169 -56.5q-28 0 -51 6v75q18 -5 40 -5q71 0 110.5 37t39.5 105t-39.5 106.5t-109.5 38.5h-14v78q134 0 134 111q0 50 -30 78t-82 28q-119 0 -119 -148v-504h-88v510
q0 103 54 159.5t152 56.5q91 0 145.5 -47z" />
    <glyph glyph-name="longs" unicode="&#x17f;" horiz-adv-x="305" 
d="M292 712v-68q-9 3 -29 3q-38 0 -56 -20t-18 -66v-561h-87v438h-89v70h89v63q0 73 35.5 109.5t103.5 36.5q31 0 51 -5z" />
    <glyph glyph-name="tbar" unicode="&#x167;" horiz-adv-x="318" 
d="M293 74v-72q-22 -6 -56 -6q-73 0 -105.5 34t-32.5 112v101h-85v59h85v136h-88v70h88v123h88v-123h101v-70h-101v-136h98v-59h-98v-92q0 -44 16 -63t54 -19q21 0 36 5z" />
    <glyph glyph-name="tcaron" unicode="&#x165;" horiz-adv-x="320" 
d="M293 74v-72q-22 -6 -56 -6q-73 0 -105.5 34t-32.5 112v296h-88v70h88v123h88v-123h101v-70h-101v-287q0 -44 16 -63t54 -19q21 0 36 5zM221 536l29 176h80l-55 -176h-54z" />
    <glyph glyph-name="uni0163" unicode="&#x163;" horiz-adv-x="320" 
d="M293 74v-72q-22 -6 -56 -6q-73 0 -105.5 34t-32.5 112v296h-88v70h88v123h88v-123h101v-70h-101v-287q0 -44 16 -63t54 -19q21 0 36 5zM223 -65v-89l-55 -103h-38l38 103h-34v89h89z" />
    <glyph glyph-name="uni021B" unicode="&#x21b;" horiz-adv-x="320" 
d="M293 74v-72q-22 -6 -56 -6q-73 0 -105.5 34t-32.5 112v296h-88v70h88v123h88v-123h101v-70h-101v-287q0 -44 16 -63t54 -19q21 0 36 5zM168 -257h-38l38 103h-34v89h89v-89z" />
    <glyph glyph-name="uacute" unicode="&#xfa;" 
d="M120.5 42q-47.5 53 -47.5 156v310h88v-303q0 -77 30 -110.5t87 -33.5q56 0 94 41.5t38 114.5v291h88v-508h-85v67h-2q-24 -36 -64.5 -57t-90.5 -21q-88 0 -135.5 53zM221 569l86 143h113l-123 -143h-76z" />
    <glyph glyph-name="ubreve" unicode="&#x16d;" 
d="M120.5 42q-47.5 53 -47.5 156v310h88v-303q0 -77 30 -110.5t87 -33.5q56 0 94 41.5t38 114.5v291h88v-508h-85v67h-2q-24 -36 -64.5 -57t-90.5 -21q-88 0 -135.5 53zM398.5 606.5q-40.5 -37.5 -109.5 -37.5t-110 37.5t-46 105.5h66q4 -39 28 -60t62 -21t61.5 21t28.5 60
h65q-5 -68 -45.5 -105.5z" />
    <glyph glyph-name="ucircumflex" unicode="&#xfb;" 
d="M120.5 42q-47.5 53 -47.5 156v310h88v-303q0 -77 30 -110.5t87 -33.5q56 0 94 41.5t38 114.5v291h88v-508h-85v67h-2q-24 -36 -64.5 -57t-90.5 -21q-88 0 -135.5 53zM288 662l-74 -93h-89l114 143h97l114 -143h-89z" />
    <glyph glyph-name="udieresis" unicode="&#xfc;" 
d="M120.5 42q-47.5 53 -47.5 156v310h88v-303q0 -77 30 -110.5t87 -33.5q56 0 94 41.5t38 114.5v291h88v-508h-85v67h-2q-24 -36 -64.5 -57t-90.5 -21q-88 0 -135.5 53zM149 613v99h82v-99h-82zM344 613v99h82v-99h-82z" />
    <glyph glyph-name="ugrave" unicode="&#xf9;" 
d="M120.5 42q-47.5 53 -47.5 156v310h88v-303q0 -77 30 -110.5t87 -33.5q56 0 94 41.5t38 114.5v291h88v-508h-85v67h-2q-24 -36 -64.5 -57t-90.5 -21q-88 0 -135.5 53zM355 569h-76l-123 143h113z" />
    <glyph glyph-name="uhungarumlaut" unicode="&#x171;" 
d="M120.5 42q-47.5 53 -47.5 156v310h88v-303q0 -77 30 -110.5t87 -33.5q56 0 94 41.5t38 114.5v291h88v-508h-85v67h-2q-24 -36 -64.5 -57t-90.5 -21q-88 0 -135.5 53zM150 569l106 143h104l-136 -143h-74zM310 569l106 143h104l-136 -143h-74z" />
    <glyph glyph-name="umacron" unicode="&#x16b;" 
d="M120.5 42q-47.5 53 -47.5 156v310h88v-303q0 -77 30 -110.5t87 -33.5q56 0 94 41.5t38 114.5v291h88v-508h-85v67h-2q-24 -36 -64.5 -57t-90.5 -21q-88 0 -135.5 53zM146 616v64h284v-64h-284z" />
    <glyph glyph-name="uogonek" unicode="&#x173;" 
d="M501 -131v-53q-25 -10 -59 -10q-50 0 -74.5 21t-24.5 59q0 32 18.5 58.5t59.5 55.5h-8v67h-2q-24 -36 -64.5 -57t-90.5 -21q-88 0 -135.5 53t-47.5 156v310h88v-303q0 -77 30 -110.5t87 -33.5q56 0 94 41.5t38 114.5v291h88v-508q-42 -31 -59 -54.5t-17 -47.5
q0 -36 40 -36q22 0 39 7z" />
    <glyph glyph-name="uring" unicode="&#x16f;" 
d="M120.5 42q-47.5 53 -47.5 156v310h88v-303q0 -77 30 -110.5t87 -33.5q56 0 94 41.5t38 114.5v291h88v-508h-85v67h-2q-24 -36 -64.5 -57t-90.5 -21q-88 0 -135.5 53zM359.5 736.5q29.5 -29.5 29.5 -70.5q0 -42 -29.5 -71.5t-71.5 -29.5q-41 0 -70.5 29.5t-29.5 71.5
q0 41 29.5 70.5t70.5 29.5q42 0 71.5 -29.5zM248 707q-17 -17 -17 -41t17 -41t40 -17q25 0 41.5 16.5t16.5 41.5q0 24 -16.5 41t-41.5 17q-23 0 -40 -17z" />
    <glyph glyph-name="utilde" unicode="&#x169;" 
d="M120.5 42q-47.5 53 -47.5 156v310h88v-303q0 -77 30 -110.5t87 -33.5q56 0 94 41.5t38 114.5v291h88v-508h-85v67h-2q-24 -36 -64.5 -57t-90.5 -21q-88 0 -135.5 53zM431 621q-27 -30 -71 -30q-22 0 -40.5 7.5t-41.5 21.5q-22 12 -33.5 17t-24.5 5q-41 0 -46 -51h-58
q3 55 30 85t71 30q22 0 40.5 -7.5t41.5 -21.5q22 -12 33.5 -17t24.5 -5q40 0 46 51h58q-3 -55 -30 -85z" />
    <glyph glyph-name="wacute" unicode="&#x1e83;" horiz-adv-x="770" 
d="M502 0l-60 220q-11 42 -14 56q-24 89 -42 164h-2q-18 -75 -42 -164q-3 -14 -14 -56l-60 -220h-126l-135 508h89l54 -212l56 -228h2q27 114 56 223l58 217h126l58 -217l56 -223h2l56 228l54 212h89l-135 -508h-126zM318 569l86 143h113l-123 -143h-76z" />
    <glyph glyph-name="wcircumflex" unicode="&#x175;" horiz-adv-x="770" 
d="M502 0l-60 220q-11 42 -14 56q-24 89 -42 164h-2q-18 -75 -42 -164q-3 -14 -14 -56l-60 -220h-126l-135 508h89l54 -212l56 -228h2q27 114 56 223l58 217h126l58 -217l56 -223h2l56 228l54 212h89l-135 -508h-126zM385 662l-74 -93h-89l114 143h97l114 -143h-89z" />
    <glyph glyph-name="wdieresis" unicode="&#x1e85;" horiz-adv-x="770" 
d="M502 0l-60 220q-11 42 -14 56q-24 89 -42 164h-2q-18 -75 -42 -164q-3 -14 -14 -56l-60 -220h-126l-135 508h89l54 -212l56 -228h2q27 114 56 223l58 217h126l58 -217l56 -223h2l56 228l54 212h89l-135 -508h-126zM246 613v99h82v-99h-82zM441 613v99h82v-99h-82z" />
    <glyph glyph-name="wgrave" unicode="&#x1e81;" horiz-adv-x="770" 
d="M502 0l-60 220q-11 42 -14 56q-24 89 -42 164h-2q-18 -75 -42 -164q-3 -14 -14 -56l-60 -220h-126l-135 508h89l54 -212l56 -228h2q27 114 56 223l58 217h126l58 -217l56 -223h2l56 228l54 212h89l-135 -508h-126zM452 569h-76l-123 143h113z" />
    <glyph glyph-name="yacute" unicode="&#xfd;" horiz-adv-x="472" 
d="M221.5 -124.5q-27.5 -35.5 -64 -50t-92.5 -14.5q-30 0 -46 5v74q18 -6 42 -6q34 0 55.5 10t37.5 34t33 70l-193 510h95l146 -404h2l148 404h93l-204 -531q-25 -66 -52.5 -101.5zM170 569l86 143h113l-123 -143h-76z" />
    <glyph glyph-name="ycircumflex" unicode="&#x177;" horiz-adv-x="472" 
d="M221.5 -124.5q-27.5 -35.5 -64 -50t-92.5 -14.5q-30 0 -46 5v74q18 -6 42 -6q34 0 55.5 10t37.5 34t33 70l-193 510h95l146 -404h2l148 404h93l-204 -531q-25 -66 -52.5 -101.5zM237 662l-74 -93h-89l114 143h97l114 -143h-89z" />
    <glyph glyph-name="ydieresis" unicode="&#xff;" horiz-adv-x="472" 
d="M221.5 -124.5q-27.5 -35.5 -64 -50t-92.5 -14.5q-30 0 -46 5v74q18 -6 42 -6q34 0 55.5 10t37.5 34t33 70l-193 510h95l146 -404h2l148 404h93l-204 -531q-25 -66 -52.5 -101.5zM98 613v99h82v-99h-82zM293 613v99h82v-99h-82z" />
    <glyph glyph-name="ygrave" unicode="&#x1ef3;" horiz-adv-x="472" 
d="M221.5 -124.5q-27.5 -35.5 -64 -50t-92.5 -14.5q-30 0 -46 5v74q18 -6 42 -6q34 0 55.5 10t37.5 34t33 70l-193 510h95l146 -404h2l148 404h93l-204 -531q-25 -66 -52.5 -101.5zM303 569h-76l-123 143h113z" />
    <glyph glyph-name="zacute" unicode="&#x17a;" horiz-adv-x="469" 
d="M134 74v-2h309v-72h-417v76l299 358v2h-289v72h397v-76zM159 569l86 143h113l-123 -143h-76z" />
    <glyph glyph-name="zcaron" unicode="&#x17e;" horiz-adv-x="469" 
d="M134 74v-2h309v-72h-417v76l299 358v2h-289v72h397v-76zM177 569l-114 143h89l74 -93l73 93h89l-114 -143h-97z" />
    <glyph glyph-name="zdotaccent" unicode="&#x17c;" horiz-adv-x="469" 
d="M134 74v-2h309v-72h-417v76l299 358v2h-289v72h397v-76zM181 613v99h88v-99h-88z" />
    <glyph glyph-name="j.acute.loclNLD" horiz-adv-x="249" 
d="M132.5 -150.5q-38.5 -38.5 -107.5 -38.5q-28 0 -47 5v70q15 -3 29 -3q39 0 57.5 21.5t18.5 74.5v529h88v-537q0 -83 -38.5 -121.5zM61 569l86 143h113l-123 -143h-76z" />
    <glyph glyph-name="ccedilla.ss01" horiz-adv-x="534" 
d="M387.5 497.5q47.5 -24.5 76 -68.5t33.5 -101h-92q-5 54 -39.5 88t-86.5 34q-67 0 -106 -52.5t-39 -143.5t38.5 -143.5t106.5 -52.5q52 0 86.5 36.5t39.5 92.5h92q-5 -58 -33 -103.5t-75.5 -71.5t-108.5 -26q-73 0 -127 32.5t-83 93t-29 142.5t29 142.5t83 93t127 32.5
q60 0 107.5 -24.5zM123 -211l129 162h80l-99 -162h-110z" />
    <glyph glyph-name="scedilla.ss01" horiz-adv-x="494" 
d="M385 477q52 -45 52 -128h-86q0 51 -29.5 78t-83.5 27q-46 0 -72.5 -19.5t-26.5 -52.5q0 -26 12.5 -40t35.5 -22t74 -20q66 -16 102.5 -30t63 -45.5t26.5 -86.5q0 -69 -54.5 -110.5t-146.5 -41.5q-101 0 -156.5 47t-56.5 136h89q0 -54 32.5 -83.5t92.5 -29.5q50 0 80 21
t30 55q0 29 -14 45t-41 25.5t-85 23.5q-61 15 -93 27.5t-55.5 41t-23.5 80.5q0 65 52.5 106t135.5 41q94 0 146 -45zM95 -211l129 162h80l-99 -162h-110z" />
    <glyph glyph-name="uni0163.ss01" horiz-adv-x="320" 
d="M293 74v-72q-22 -6 -56 -6q-73 0 -105.5 34t-32.5 112v296h-88v70h88v123h88v-123h101v-70h-101v-287q0 -44 16 -63t54 -19q21 0 36 5zM23 -211l129 162h80l-99 -162h-110z" />
    <glyph glyph-name="a.sups" horiz-adv-x="393" 
d="M302.5 660.5q38.5 -35.5 38.5 -105.5v-131q0 -54 9 -94h-68q-5 27 -5 50h-2q-41 -58 -126 -58q-57 0 -91 29.5t-34 76.5t32.5 74.5t110.5 39.5q71 9 101 11v12q0 76 -77 76q-36 0 -55.5 -17t-20.5 -47h-76q3 52 42.5 85.5t110.5 33.5q72 0 110.5 -35.5zM179 489
q-43 -7 -60.5 -19.5t-17.5 -36.5q0 -25 18 -40t51 -15q21 0 39.5 6.5t30.5 18.5q16 16 22 32.5t6 45.5v19q-48 -4 -89 -11z" />
    <glyph glyph-name="b.sups" horiz-adv-x="423" 
d="M132 640q15 25 44.5 40.5t63.5 15.5q70 0 112 -51t42 -136q0 -86 -42.5 -137t-112.5 -51q-35 0 -64.5 16t-43.5 42h-2v-49h-74v498h75v-188h2zM152 601.5q-26 -34.5 -26 -92.5t26 -92.5t68 -34.5q43 0 69 34.5t26 92.5q0 57 -26 92t-69 35q-42 0 -68 -34.5z" />
    <glyph glyph-name="c.sups" horiz-adv-x="393" 
d="M318.5 656q43.5 -40 48.5 -99h-79q-2 31 -24.5 54t-58.5 23q-44 0 -70 -34t-26 -92t26 -92t71 -34q33 0 56.5 24t25.5 59h79q-5 -64 -49 -104.5t-113 -40.5q-81 0 -128.5 50.5t-47.5 137.5t47.5 137.5t128.5 50.5q70 0 113.5 -40z" />
    <glyph glyph-name="d.sups" horiz-adv-x="423" 
d="M368 330h-74v49h-1q-15 -26 -44.5 -42t-64.5 -16q-70 0 -112.5 51t-42.5 137q0 85 42 136t113 51q34 0 63 -15.5t44 -40.5h2v188h75v-498zM134 601q-26 -35 -26 -92q0 -58 26 -92.5t69 -34.5t68.5 34.5t25.5 92.5t-25.5 92.5t-68.5 34.5t-69 -35z" />
    <glyph glyph-name="e.sups" horiz-adv-x="404" 
d="M264.5 393q23.5 17 29.5 44h78q-10 -50 -53.5 -83.5t-113.5 -33.5q-83 0 -129.5 52.5t-46.5 140.5q0 80 47 131.5t128 51.5q63 0 105.5 -32.5t57.5 -89.5q8 -29 8 -82h-271q2 -59 30 -87.5t71 -28.5q36 0 59.5 17zM136.5 615.5q-26.5 -24.5 -31.5 -70.5h195
q-5 46 -31 70.5t-65 24.5q-41 0 -67.5 -24.5z" />
    <glyph glyph-name="egrave.sups" horiz-adv-x="404" 
d="M264.5 393q23.5 17 29.5 44h78q-10 -50 -53.5 -83.5t-113.5 -33.5q-83 0 -129.5 52.5t-46.5 140.5q0 20 3 36l-23 23h28q15 56 58.5 90t108.5 34q63 0 105.5 -32.5t57.5 -89.5q8 -29 8 -82h-208l13 -19h-72l-3 3q6 -51 33 -75.5t67 -24.5q36 0 59.5 17zM145.5 622.5
q-24.5 -17.5 -34.5 -50.5l19 -27h170q-4 46 -30.5 70.5t-65.5 24.5q-34 0 -58.5 -17.5z" />
    <glyph glyph-name="f.sups" horiz-adv-x="230" 
d="M159.5 760.5q-12.5 -13.5 -12.5 -44.5v-30h72v-59h-72v-297h-75v297h-62v59h62v39q0 107 108 107q24 0 41 -5v-56q-9 3 -22 3q-27 0 -39.5 -13.5z" />
    <glyph glyph-name="g.sups" horiz-adv-x="420" 
d="M245 681q28 -14 47 -42h1v47h73v-333q0 -79 -43 -119t-125 -40q-71 0 -111 30t-42 84h74q1 -28 22.5 -43.5t57.5 -15.5q48 0 70.5 24.5t22.5 80.5v38h-2q-19 -26 -46.5 -40t-59.5 -14q-71 0 -113 48.5t-42 130.5q0 81 42 129.5t113 48.5q33 0 61 -14zM132 602.5
q-25 -32.5 -25 -85.5t25 -85.5t67 -32.5q44 0 70 31.5t26 86.5t-26 86.5t-70 31.5q-42 0 -67 -32.5z" />
    <glyph glyph-name="h.sups" horiz-adv-x="422" 
d="M132 645q18 24 46 36.5t60 12.5q64 0 98.5 -37.5t34.5 -109.5v-217h-76v211q0 50 -19 71t-58 21q-38 0 -63 -27t-25 -77v-199h-75v498h75v-183h2z" />
    <glyph glyph-name="i.sups" horiz-adv-x="185" 
d="M55 754v74h75v-74h-75zM55 330v356h75v-356h-75z" />
    <glyph glyph-name="j.sups" horiz-adv-x="190" 
d="M60 754v74h75v-74h-75zM24 197q-23 0 -39 4v59q8 -2 22 -2q27 0 40 13.5t13 45.5v369h75v-377q0 -112 -111 -112z" />
    <glyph glyph-name="k.sups" horiz-adv-x="373" 
d="M280 330l-148 174h-2v-174h-75v498h75v-287h2l134 145h94l-156 -161l174 -195h-98z" />
    <glyph glyph-name="l.sups" horiz-adv-x="185" 
d="M55 330v498h75v-498h-75z" />
    <glyph glyph-name="m.sups" horiz-adv-x="630" 
d="M547 657.5q32 -36.5 32 -107.5v-220h-75v213q0 48 -17 69t-51 21q-38 0 -59.5 -28.5t-21.5 -77.5v-197h-76v221q0 40 -17.5 61t-50.5 21q-38 0 -59.5 -29t-21.5 -80v-194h-75v356h72v-42h2q21 25 45 37.5t56 12.5q37 0 65.5 -17t43.5 -49q39 66 116 66q60 0 92 -36.5z
" />
    <glyph glyph-name="n.sups" horiz-adv-x="422" 
d="M336.5 656.5q34.5 -37.5 34.5 -109.5v-217h-76v211q0 50 -19 71t-58 21q-38 0 -63 -27t-25 -77v-199h-75v356h72v-44h2q17 23 45.5 37.5t63.5 14.5q64 0 98.5 -37.5z" />
    <glyph glyph-name="o.sups" horiz-adv-x="416" 
d="M339 645.5q48 -50.5 48 -137.5q0 -88 -48 -138t-131 -50q-82 0 -130.5 50.5t-48.5 137.5t48.5 137.5t130.5 50.5q83 0 131 -50.5zM136 601q-26 -34 -26 -93t26 -93t72 -34q47 0 73.5 34t26.5 93t-26.5 93t-73.5 34q-46 0 -72 -34z" />
    <glyph glyph-name="p.sups" horiz-adv-x="423" 
d="M351.5 645q42.5 -51 42.5 -136q0 -86 -42 -137t-112 -51q-34 0 -63.5 15.5t-44.5 39.5h-2v-175h-75v485h74v-48h2q14 26 43.5 42t64.5 16q70 0 112.5 -51zM152 601.5q-26 -34.5 -26 -92.5t26 -92.5t68 -34.5q43 0 69 34.5t26 92.5q0 57 -26 92t-69 35q-42 0 -68 -34.5z
" />
    <glyph glyph-name="q.sups" horiz-adv-x="423" 
d="M248.5 680q29.5 -16 44.5 -42h1v48h74v-485h-75v175h-2q-15 -25 -44 -40t-63 -15q-71 0 -113 51t-42 137q0 85 42.5 136t112.5 51q35 0 64.5 -16zM134 601q-26 -35 -26 -92q0 -58 26 -92.5t69 -34.5t68.5 34.5t25.5 92.5t-25.5 92.5t-68.5 34.5t-69 -35z" />
    <glyph glyph-name="r.sups" horiz-adv-x="272" 
d="M265 687v-69q-13 3 -29 3q-51 0 -78.5 -31t-27.5 -88v-172h-75v356h72v-53h2q38 57 107 57q16 0 29 -3z" />
    <glyph glyph-name="s.sups" horiz-adv-x="366" 
d="M286.5 665q38.5 -31 39.5 -90h-74q0 32 -19.5 49t-55.5 17q-31 0 -48 -12t-17 -32q0 -16 8.5 -25t24 -14t52.5 -14q48 -12 74 -21.5t46 -32t20 -61.5q0 -50 -40.5 -79.5t-109.5 -29.5q-76 0 -117 32.5t-42 95.5h76q0 -35 21.5 -53.5t62.5 -18.5q33 0 53 13t20 34
q0 19 -9.5 29t-28 16.5t-60.5 16.5q-44 10 -67.5 18.5t-41 29.5t-17.5 58q0 47 38 76t103 29q70 0 108.5 -31z" />
    <glyph glyph-name="t.sups" horiz-adv-x="240" 
d="M220 392v-61q-22 -4 -43 -4q-57 0 -82 24.5t-25 80.5v195h-63v59h63v87h75v-87h72v-59h-72v-184q0 -29 11.5 -41.5t38.5 -12.5q10 0 25 3z" />
    <glyph glyph-name="u.sups" horiz-adv-x="421" 
d="M85.5 359.5q-34.5 37.5 -34.5 109.5v217h75v-211q0 -50 19.5 -71t57.5 -21t63 27t25 77v199h76v-356h-73v44h-1q-18 -24 -46 -38t-63 -14q-64 0 -98.5 37.5z" />
    <glyph glyph-name="v.sups" horiz-adv-x="349" 
d="M125 330l-129 356h81l48 -142q30 -91 49 -154h2q20 68 35 113l13 41l48 142h81l-128 -356h-100z" />
    <glyph glyph-name="w.sups" horiz-adv-x="567" 
d="M361 330l-38 146q-17 63 -30 118l-9 35h-1l-38 -153l-39 -146h-106l-95 356h76l35 -143q22 -85 37 -156h2l9 37q20 86 28 115l39 147h105l39 -147q23 -89 37 -152h2l37 156l35 143h76l-95 -356h-106z" />
    <glyph glyph-name="x.sups" horiz-adv-x="357" 
d="M359 330h-90l-89 136h-2l-90 -136h-89l133 186l-122 170h89l79 -122h2l79 122h88l-122 -170z" />
    <glyph glyph-name="y.sups" horiz-adv-x="353" 
d="M177 245q-20 -26 -47 -37t-70 -11q-15 0 -37 4v61q12 -4 29 -4q36 0 53 15t32 57l-141 356h82l100 -275h2l98 275h79l-141 -367q-19 -48 -39 -74z" />
    <glyph glyph-name="z.sups" horiz-adv-x="343" 
d="M113 393v-2h211v-61h-305v64l205 229v2h-199v61h293v-64z" />
    <glyph glyph-name="ff" unicode="&#xfb00;" horiz-adv-x="578" 
d="M480 627q-18 -20 -18 -66v-53h101v-70h-101v-438h-87v438h-186v-438h-87v438h-89v70h89v63q0 73 35.5 109.5t103.5 36.5q31 0 51 -5v-68q-9 3 -29 3q-38 0 -56 -20t-18 -66v-53h186v63q0 73 35.5 109.5t103.5 36.5q29 0 51 -5v-68q-10 3 -29 3q-38 0 -56 -20z" />
    <glyph glyph-name="ffi" unicode="&#xfb03;" horiz-adv-x="822" 
d="M410.5 680.5q35.5 36.5 103.5 36.5q29 0 51 -5v-68q-10 3 -29 3q-38 0 -56 -20t-18 -66v-53h101v-70h-101v-438h-87v438h-186v-438h-87v438h-89v70h89v63q0 73 35.5 109.5t103.5 36.5q31 0 51 -5v-68q-9 3 -29 3q-38 0 -56 -20t-18 -66v-53h186v63q0 73 35.5 109.5z
M744 613h-88v99h88v-99zM744 508v-508h-88v508h88z" />
    <glyph glyph-name="ffl" unicode="&#xfb04;" horiz-adv-x="822" 
d="M410.5 680.5q35.5 36.5 103.5 36.5q29 0 51 -5v-68q-10 3 -29 3q-38 0 -56 -20t-18 -66v-53h101v-70h-101v-438h-87v438h-186v-438h-87v438h-89v70h89v63q0 73 35.5 109.5t103.5 36.5q31 0 51 -5v-68q-9 3 -29 3q-38 0 -56 -20t-18 -66v-53h186v63q0 73 35.5 109.5z
M744 0h-88v712h88v-712z" />
    <glyph glyph-name="fi" unicode="&#xfb01;" horiz-adv-x="549" 
d="M137.5 680.5q35.5 36.5 103.5 36.5q31 0 51 -5v-68q-9 3 -29 3q-38 0 -56 -20t-18 -66v-53h101v-70h-101v-438h-87v438h-89v70h89v63q0 73 35.5 109.5zM471 613h-88v99h88v-99zM471 508v-508h-88v508h88z" />
    <glyph glyph-name="fl" unicode="&#xfb02;" horiz-adv-x="549" 
d="M207 627q-18 -20 -18 -66v-53h101v-70h-101v-438h-87v438h-89v70h89v63q0 73 35.5 109.5t103.5 36.5q31 0 51 -5v-68q-9 3 -29 3q-38 0 -56 -20zM383 0v712h88v-712h-88z" />
    <glyph glyph-name="a.smcp" horiz-adv-x="565" 
d="M158 146l-55 -146h-98l216 548h123l216 -548h-98l-55 146h-249zM361 270l-9 24q-41 107 -69 188h-2l-77 -212l-17 -45h191z" />
    <glyph glyph-name="aacute.smcp" horiz-adv-x="565" 
d="M158 146l-55 -146h-98l216 548h123l216 -548h-98l-55 146h-249zM361 270l-9 24q-41 107 -69 188h-2l-77 -212l-17 -45h191zM216 609l86 143h113l-123 -143h-76z" />
    <glyph glyph-name="abreve.smcp" horiz-adv-x="565" 
d="M158 146l-55 -146h-98l216 548h123l216 -548h-98l-55 146h-249zM361 270l-9 24q-41 107 -69 188h-2l-77 -212l-17 -45h191zM392.5 646.5q-40.5 -37.5 -109.5 -37.5t-110 37.5t-46 105.5h66q4 -39 28 -60t62 -21t61.5 21t28.5 60h65q-5 -68 -45.5 -105.5z" />
    <glyph glyph-name="acircumflex.smcp" horiz-adv-x="565" 
d="M158 146l-55 -146h-98l216 548h123l216 -548h-98l-55 146h-249zM361 270l-9 24q-41 107 -69 188h-2l-77 -212l-17 -45h191zM283 702l-74 -93h-89l114 143h97l114 -143h-89z" />
    <glyph glyph-name="adieresis.smcp" horiz-adv-x="565" 
d="M158 146l-55 -146h-98l216 548h123l216 -548h-98l-55 146h-249zM361 270l-9 24q-41 107 -69 188h-2l-77 -212l-17 -45h191zM144 653v99h82v-99h-82zM339 653v99h82v-99h-82z" />
    <glyph glyph-name="agrave.smcp" horiz-adv-x="565" 
d="M158 146l-55 -146h-98l216 548h123l216 -548h-98l-55 146h-249zM361 270l-9 24q-41 107 -69 188h-2l-77 -212l-17 -45h191zM349 609h-76l-123 143h113z" />
    <glyph glyph-name="amacron.smcp" horiz-adv-x="565" 
d="M158 146l-55 -146h-98l216 548h123l216 -548h-98l-55 146h-249zM361 270l-9 24q-41 107 -69 188h-2l-77 -212l-17 -45h191zM140 656v64h284v-64h-284z" />
    <glyph glyph-name="aogonek.smcp" horiz-adv-x="565" 
d="M563 -131v-53q-25 -10 -59 -10q-50 0 -74.5 21t-24.5 59q0 32 18.5 58.5t59.5 55.5h-21l-55 146h-249l-55 -146h-98l216 548h123l216 -548q-42 -31 -59 -54.5t-17 -47.5q0 -36 40 -36q22 0 39 7zM361 270l-9 24q-41 107 -69 188h-2l-77 -212l-17 -45h191z" />
    <glyph glyph-name="aring.smcp" horiz-adv-x="565" 
d="M158 146l-55 -146h-98l216 548h123l216 -548h-98l-55 146h-249zM361 270l-9 24q-41 107 -69 188h-2l-77 -212l-17 -45h191zM353.5 776.5q29.5 -29.5 29.5 -70.5q0 -42 -29.5 -71.5t-71.5 -29.5q-41 0 -70.5 29.5t-29.5 71.5q0 41 29.5 70.5t70.5 29.5q42 0 71.5 -29.5z
M242 747q-17 -17 -17 -41t17 -41t40 -17q25 0 41.5 16.5t16.5 41.5q0 24 -16.5 41t-41.5 17q-23 0 -40 -17z" />
    <glyph glyph-name="atilde.smcp" horiz-adv-x="565" 
d="M158 146l-55 -146h-98l216 548h123l216 -548h-98l-55 146h-249zM361 270l-9 24q-41 107 -69 188h-2l-77 -212l-17 -45h191zM425 661q-27 -30 -71 -30q-22 0 -40.5 7.5t-41.5 21.5q-22 12 -33.5 17t-24.5 5q-41 0 -46 -51h-58q3 55 30 85t71 30q22 0 40.5 -7.5t41.5 -21.5
q22 -12 33.5 -17t24.5 -5q40 0 46 51h58q-3 -55 -30 -85z" />
    <glyph glyph-name="ae.smcp" horiz-adv-x="782" 
d="M731 0h-314l-25 157h-217l-78 -157h-102l277 548h452v-79h-289l24 -150h247v-78h-235l26 -162h234v-79zM342 470h-12l-116 -234h165z" />
    <glyph glyph-name="b.smcp" horiz-adv-x="547" 
d="M433 509.5q50 -38.5 50 -103.5q0 -46 -24 -77.5t-72 -46.5v-2q52 -12 80 -45t28 -82q0 -70 -52.5 -111.5t-145.5 -41.5h-212v548h199q99 0 149 -38.5zM176 315h95q64 0 93 19.5t29 58.5q0 40 -28 60t-89 20h-100v-158zM176 75h105q62 0 90.5 20t28.5 63q0 42 -30.5 63
t-97.5 21h-96v-167z" />
    <glyph glyph-name="c.smcp" horiz-adv-x="587" 
d="M466.5 506.5q63.5 -55.5 68.5 -146.5h-95q-6 57 -45 88.5t-99 31.5q-75 0 -118.5 -55t-43.5 -151t43.5 -151t118.5 -55q59 0 98 32.5t47 90.5h97q-9 -96 -73 -150.5t-169 -54.5q-120 0 -189 76.5t-69 211.5q0 134 69 211t189 77q107 0 170.5 -55.5z" />
    <glyph glyph-name="cacute.smcp" horiz-adv-x="587" 
d="M466.5 506.5q63.5 -55.5 68.5 -146.5h-95q-6 57 -45 88.5t-99 31.5q-75 0 -118.5 -55t-43.5 -151t43.5 -151t118.5 -55q59 0 98 32.5t47 90.5h97q-9 -96 -73 -150.5t-169 -54.5q-120 0 -189 76.5t-69 211.5q0 134 69 211t189 77q107 0 170.5 -55.5zM229 609l86 143h113
l-123 -143h-76z" />
    <glyph glyph-name="ccaron.smcp" horiz-adv-x="587" 
d="M466.5 506.5q63.5 -55.5 68.5 -146.5h-95q-6 57 -45 88.5t-99 31.5q-75 0 -118.5 -55t-43.5 -151t43.5 -151t118.5 -55q59 0 98 32.5t47 90.5h97q-9 -96 -73 -150.5t-169 -54.5q-120 0 -189 76.5t-69 211.5q0 134 69 211t189 77q107 0 170.5 -55.5zM247 609l-114 143h89
l74 -93l73 93h89l-114 -143h-97z" />
    <glyph glyph-name="ccedilla.smcp" horiz-adv-x="587" 
d="M475 49.5q-55 -53.5 -146 -61.5l-32 -50q18 3 26 3q33 0 56.5 -20.5t23.5 -53.5q0 -37 -28.5 -62t-81.5 -25q-54 0 -105 27l18 37q36 -21 78 -21q27 0 41.5 10.5t14.5 30.5q0 19 -14.5 30.5t-38.5 11.5q-18 0 -31 -6l-18 20l44 66q-114 5 -179 81t-65 207q0 134 69 211
t189 77q107 0 170.5 -55.5t68.5 -146.5h-95q-6 57 -45 88.5t-99 31.5q-75 0 -118.5 -55t-43.5 -151t43.5 -151t118.5 -55q59 0 98 32.5t47 90.5h97q-8 -88 -63 -141.5z" />
    <glyph glyph-name="ccircumflex.smcp" horiz-adv-x="587" 
d="M466.5 506.5q63.5 -55.5 68.5 -146.5h-95q-6 57 -45 88.5t-99 31.5q-75 0 -118.5 -55t-43.5 -151t43.5 -151t118.5 -55q59 0 98 32.5t47 90.5h97q-9 -96 -73 -150.5t-169 -54.5q-120 0 -189 76.5t-69 211.5q0 134 69 211t189 77q107 0 170.5 -55.5zM296 702l-74 -93h-89
l114 143h97l114 -143h-89z" />
    <glyph glyph-name="cdotaccent.smcp" horiz-adv-x="587" 
d="M466.5 506.5q63.5 -55.5 68.5 -146.5h-95q-6 57 -45 88.5t-99 31.5q-75 0 -118.5 -55t-43.5 -151t43.5 -151t118.5 -55q59 0 98 32.5t47 90.5h97q-9 -96 -73 -150.5t-169 -54.5q-120 0 -189 76.5t-69 211.5q0 134 69 211t189 77q107 0 170.5 -55.5zM252 653v99h88v-99
h-88z" />
    <glyph glyph-name="d.smcp" horiz-adv-x="609" 
d="M492.5 477q78.5 -71 78.5 -203t-78.5 -203t-224.5 -71h-183v548h183q146 0 224.5 -71zM176 80h92q101 0 154 50t53 144t-53 144t-154 50h-92v-388z" />
    <glyph glyph-name="eth.smcp" horiz-adv-x="611" 
d="M494.5 477q78.5 -71 78.5 -203t-78.5 -203t-224.5 -71h-183v244h-63v66h63v238h183q146 0 224.5 -71zM424 130q53 50 53 144t-53 144t-154 50h-92v-158h146v-66h-146v-164h92q101 0 154 50z" />
    <glyph glyph-name="dcaron.smcp" horiz-adv-x="609" 
d="M492.5 477q78.5 -71 78.5 -203t-78.5 -203t-224.5 -71h-183v548h183q146 0 224.5 -71zM176 80h92q101 0 154 50t53 144t-53 144t-154 50h-92v-388zM232 609l-114 143h89l74 -93l73 93h89l-114 -143h-97z" />
    <glyph glyph-name="dcroat.smcp" horiz-adv-x="611" 
d="M494.5 477q78.5 -71 78.5 -203t-78.5 -203t-224.5 -71h-183v244h-63v66h63v238h183q146 0 224.5 -71zM424 130q53 50 53 144t-53 144t-154 50h-92v-158h146v-66h-146v-164h92q101 0 154 50z" />
    <glyph glyph-name="e.smcp" horiz-adv-x="526" 
d="M177 469v-150h276v-78h-276v-162h301v-79h-393v548h385v-79h-293z" />
    <glyph glyph-name="eacute.smcp" horiz-adv-x="526" 
d="M177 469v-150h276v-78h-276v-162h301v-79h-393v548h385v-79h-293zM211 609l86 143h113l-123 -143h-76z" />
    <glyph glyph-name="ebreve.smcp" horiz-adv-x="526" 
d="M177 469v-150h276v-78h-276v-162h301v-79h-393v548h385v-79h-293zM388.5 646.5q-40.5 -37.5 -109.5 -37.5t-110 37.5t-46 105.5h66q4 -39 28 -60t62 -21t61.5 21t28.5 60h65q-5 -68 -45.5 -105.5z" />
    <glyph glyph-name="ecaron.smcp" horiz-adv-x="526" 
d="M177 469v-150h276v-78h-276v-162h301v-79h-393v548h385v-79h-293zM229 609l-114 143h89l74 -93l73 93h89l-114 -143h-97z" />
    <glyph glyph-name="ecircumflex.smcp" horiz-adv-x="526" 
d="M177 469v-150h276v-78h-276v-162h301v-79h-393v548h385v-79h-293zM278 702l-74 -93h-89l114 143h97l114 -143h-89z" />
    <glyph glyph-name="edieresis.smcp" horiz-adv-x="526" 
d="M177 469v-150h276v-78h-276v-162h301v-79h-393v548h385v-79h-293zM139 653v99h82v-99h-82zM334 653v99h82v-99h-82z" />
    <glyph glyph-name="edotaccent.smcp" horiz-adv-x="526" 
d="M177 469v-150h276v-78h-276v-162h301v-79h-393v548h385v-79h-293zM234 653v99h88v-99h-88z" />
    <glyph glyph-name="egrave.smcp" horiz-adv-x="526" 
d="M177 469v-150h276v-78h-276v-162h301v-79h-393v548h385v-79h-293zM345 609h-76l-123 143h113z" />
    <glyph glyph-name="emacron.smcp" horiz-adv-x="526" 
d="M177 469v-150h276v-78h-276v-162h301v-79h-393v548h385v-79h-293zM136 656v64h284v-64h-284z" />
    <glyph glyph-name="eogonek.smcp" horiz-adv-x="526" 
d="M481 -131v-53q-25 -10 -59 -10q-50 0 -74.5 21t-24.5 59q0 32 18.5 58.5t59.5 55.5h-316v548h385v-79h-293v-150h276v-78h-276v-162h301v-79q-42 -31 -59 -54.5t-17 -47.5q0 -36 40 -36q22 0 39 7z" />
    <glyph glyph-name="f.smcp" horiz-adv-x="486" 
d="M176 468v-166h265v-80h-265v-222h-91v548h374v-80h-283z" />
    <glyph glyph-name="fi.smcp" horiz-adv-x="748" 
d="M176 468v-166h265v-80h-265v-222h-91v548h374v-80h-283zM571 0v548h92v-548h-92z" />
    <glyph glyph-name="fl.smcp" horiz-adv-x="962" 
d="M176 468v-166h265v-80h-265v-222h-91v548h374v-80h-283zM952 80v-80h-381v548h92v-468h289z" />
    <glyph glyph-name="g.smcp" horiz-adv-x="617" 
d="M469 514q64 -48 74 -131h-98q-10 48 -46 73t-94 25q-78 0 -124.5 -56t-46.5 -152t44.5 -151.5t121.5 -55.5q71 0 112.5 39t42.5 118h-151v75h238v-298h-82v63h-2q-24 -34 -71 -54t-104 -20q-75 0 -130 34t-85 98t-30 152q0 89 32.5 154t93 100t141.5 35q100 0 164 -48z
" />
    <glyph glyph-name="gbreve.smcp" horiz-adv-x="617" 
d="M469 514q64 -48 74 -131h-98q-10 48 -46 73t-94 25q-78 0 -124.5 -56t-46.5 -152t44.5 -151.5t121.5 -55.5q71 0 112.5 39t42.5 118h-151v75h238v-298h-82v63h-2q-24 -34 -71 -54t-104 -20q-75 0 -130 34t-85 98t-30 152q0 89 32.5 154t93 100t141.5 35q100 0 164 -48z
M409.5 646.5q-40.5 -37.5 -109.5 -37.5t-110 37.5t-46 105.5h66q4 -39 28 -60t62 -21t61.5 21t28.5 60h65q-5 -68 -45.5 -105.5z" />
    <glyph glyph-name="gcircumflex.smcp" horiz-adv-x="617" 
d="M469 514q64 -48 74 -131h-98q-10 48 -46 73t-94 25q-78 0 -124.5 -56t-46.5 -152t44.5 -151.5t121.5 -55.5q71 0 112.5 39t42.5 118h-151v75h238v-298h-82v63h-2q-24 -34 -71 -54t-104 -20q-75 0 -130 34t-85 98t-30 152q0 89 32.5 154t93 100t141.5 35q100 0 164 -48z
M300 702l-74 -93h-89l114 143h97l114 -143h-89z" />
    <glyph glyph-name="gcommaaccent.smcp" horiz-adv-x="617" 
d="M469 514q64 -48 74 -131h-98q-10 48 -46 73t-94 25q-78 0 -124.5 -56t-46.5 -152t44.5 -151.5t121.5 -55.5q71 0 112.5 39t42.5 118h-151v75h238v-298h-82v63h-2q-24 -34 -71 -54t-104 -20q-75 0 -130 34t-85 98t-30 152q0 89 32.5 154t93 100t141.5 35q100 0 164 -48z
M292 -257h-38l38 103h-34v89h89v-89z" />
    <glyph glyph-name="gdotaccent.smcp" horiz-adv-x="617" 
d="M469 514q64 -48 74 -131h-98q-10 48 -46 73t-94 25q-78 0 -124.5 -56t-46.5 -152t44.5 -151.5t121.5 -55.5q71 0 112.5 39t42.5 118h-151v75h238v-298h-82v63h-2q-24 -34 -71 -54t-104 -20q-75 0 -130 34t-85 98t-30 152q0 89 32.5 154t93 100t141.5 35q100 0 164 -48z
M255 653v99h88v-99h-88z" />
    <glyph glyph-name="h.smcp" horiz-adv-x="630" 
d="M453 0v244h-276v-244h-92v548h92v-224h276v224h92v-548h-92z" />
    <glyph glyph-name="hbar.smcp" horiz-adv-x="630" 
d="M545 437v-437h-92v244h-276v-244h-92v437h-45v55h45v56h92v-56h276v56h92v-56h45v-55h-45zM177 437v-113h276v113h-276z" />
    <glyph glyph-name="uni0125.smcp" horiz-adv-x="630" 
d="M453 0v244h-276v-244h-92v548h92v-224h276v224h92v-548h-92zM316 702l-74 -93h-89l114 143h97l114 -143h-89z" />
    <glyph glyph-name="i.smcp" horiz-adv-x="262" 
d="M85 0v548h92v-548h-92z" />
    <glyph glyph-name="iacute.smcp" horiz-adv-x="262" 
d="M85 0v548h92v-548h-92zM64 609l86 143h113l-123 -143h-76z" />
    <glyph glyph-name="ibreve.smcp" horiz-adv-x="262" 
d="M85 0v548h92v-548h-92zM230.5 646.5q-36.5 -37.5 -99.5 -37.5t-99.5 37.5t-39.5 105.5h63q3 -40 22.5 -61t53.5 -21t53.5 21t22.5 61h63q-3 -68 -39.5 -105.5z" />
    <glyph glyph-name="icircumflex.smcp" horiz-adv-x="262" 
d="M85 0v548h92v-548h-92zM194 610l-63 93l-62 -93h-86l100 142h96l100 -142h-85z" />
    <glyph glyph-name="idieresis.smcp" horiz-adv-x="262" 
d="M85 0v548h92v-548h-92zM13 653v99h82v-99h-82zM167 653v99h81v-99h-81z" />
    <glyph glyph-name="i.loclTRK.smcp" horiz-adv-x="262" 
d="M85 0v548h92v-548h-92zM87 653v99h88v-99h-88z" />
    <glyph glyph-name="igrave.smcp" horiz-adv-x="262" 
d="M85 0v548h92v-548h-92zM198 609h-76l-123 143h113z" />
    <glyph glyph-name="ij.smcp" horiz-adv-x="572" 
d="M85 0v548h92v-548h-92zM321 -4q-24 0 -46 5v79q18 -3 35 -3q47 0 69 23t22 79v369h91v-382q0 -170 -171 -170z" />
    <glyph glyph-name="imacron.smcp" horiz-adv-x="262" 
d="M85 0v548h92v-548h-92zM2 657v65h257v-65h-257z" />
    <glyph glyph-name="iogonek.smcp" horiz-adv-x="262" 
d="M180 -131v-53q-25 -10 -59 -10q-50 0 -74.5 21t-24.5 59q0 32 18.5 58.5t59.5 55.5h-15v548h92v-548q-42 -31 -59 -54.5t-17 -47.5q0 -36 40 -36q22 0 39 7z" />
    <glyph glyph-name="itilde.smcp" horiz-adv-x="262" 
d="M85 0v548h92v-548h-92zM255.5 661q-24.5 -30 -66.5 -30q-20 0 -34 7.5t-35 22.5q-18 12 -27 17t-20 5q-37 0 -42 -52h-51q2 55 26.5 85t66.5 30q20 0 34 -7.5t35 -22.5q16 -12 26 -17.5t21 -5.5q19 0 29 13t12 40h52q-2 -55 -26.5 -85z" />
    <glyph glyph-name="j.smcp" horiz-adv-x="310" 
d="M59 -4q-24 0 -46 5v79q18 -3 35 -3q47 0 69 23t22 79v369h91v-382q0 -170 -171 -170z" />
    <glyph glyph-name="jcircumflex.smcp" horiz-adv-x="310" 
d="M59 -4q-24 0 -46 5v79q18 -3 35 -3q47 0 69 23t22 79v369h91v-382q0 -170 -171 -170zM247 610l-63 93l-62 -93h-86l100 142h96l100 -142h-85z" />
    <glyph glyph-name="k.smcp" horiz-adv-x="540" 
d="M536 0h-122l-235 264h-2v-264h-92v548h92v-243h2l219 243h115l-243 -261z" />
    <glyph glyph-name="kcommaaccent.smcp" horiz-adv-x="540" 
d="M536 0h-122l-235 264h-2v-264h-92v548h92v-243h2l219 243h115l-243 -261zM273 -257h-38l38 103h-34v89h89v-89z" />
    <glyph glyph-name="l.smcp" horiz-adv-x="476" 
d="M466 80v-80h-381v548h92v-468h289z" />
    <glyph glyph-name="lacute.smcp" horiz-adv-x="476" 
d="M466 80v-80h-381v548h92v-468h289zM96 609l86 143h113l-123 -143h-76z" />
    <glyph glyph-name="lcaron.smcp" horiz-adv-x="476" 
d="M466 80v-80h-381v548h92v-468h289zM228 372l29 176h80l-55 -176h-54z" />
    <glyph glyph-name="lcommaaccent.smcp" horiz-adv-x="476" 
d="M466 80v-80h-381v548h92v-468h289zM261 -257h-38l38 103h-34v89h89v-89z" />
    <glyph glyph-name="ldot.smcp" horiz-adv-x="536" 
d="M466 80v-80h-381v548h92v-468h289zM345 283v117h108v-117h-108z" />
    <glyph glyph-name="j.acute.loclNLD.smcp" horiz-adv-x="310" 
d="M59 -4q-24 0 -46 5v79q18 -3 35 -3q47 0 69 23t22 79v369h91v-382q0 -170 -171 -170zM117 609l86 143h113l-123 -143h-76z" />
    <glyph glyph-name="lslash.smcp" horiz-adv-x="472" 
d="M462 0h-381v235l-67 -38v75l67 38v238h92v-193l115 65v-75l-115 -64v-201h289v-80z" />
    <glyph glyph-name="m.smcp" horiz-adv-x="802" 
d="M628 0v271q0 68 2 202h-2q-46 -133 -72 -202l-101 -271h-108l-100 271l-73 202h-2q2 -67 2 -202v-271h-89v548h148l95 -257q48 -130 72 -207h2q38 114 73 207l94 257h148v-548h-89z" />
    <glyph glyph-name="n.smcp" horiz-adv-x="648" 
d="M428 0l-127 230q-81 145 -127 234h-2q2 -84 2 -252v-212h-89v548h136l127 -230l126 -234h2q-2 168 -2 252v212h89v-548h-135z" />
    <glyph glyph-name="nacute.smcp" horiz-adv-x="648" 
d="M428 0l-127 230q-81 145 -127 234h-2q2 -84 2 -252v-212h-89v548h136l127 -230l126 -234h2q-2 168 -2 252v212h89v-548h-135zM257 609l86 143h113l-123 -143h-76z" />
    <glyph glyph-name="ncaron.smcp" horiz-adv-x="648" 
d="M428 0l-127 230q-81 145 -127 234h-2q2 -84 2 -252v-212h-89v548h136l127 -230l126 -234h2q-2 168 -2 252v212h89v-548h-135zM275 609l-114 143h89l74 -93l73 93h89l-114 -143h-97z" />
    <glyph glyph-name="ncommaaccent.smcp" horiz-adv-x="648" 
d="M428 0l-127 230q-81 145 -127 234h-2q2 -84 2 -252v-212h-89v548h136l127 -230l126 -234h2q-2 168 -2 252v212h89v-548h-135zM313 -257h-38l38 103h-34v89h89v-89z" />
    <glyph glyph-name="eng.smcp" horiz-adv-x="639" 
d="M554 -26q0 -69 -34.5 -101t-95.5 -32q-26 0 -44 5v66q18 -2 26 -2q29 0 43.5 15t14.5 49v26l-157 244l-134 210h-2q3 -118 3 -237v-217h-89v548h125l123 -190q82 -125 133 -210h2q-3 119 -3 236v164h89v-574z" />
    <glyph glyph-name="ntilde.smcp" horiz-adv-x="648" 
d="M428 0l-127 230q-81 145 -127 234h-2q2 -84 2 -252v-212h-89v548h136l127 -230l126 -234h2q-2 168 -2 252v212h89v-548h-135zM467 661q-27 -30 -71 -30q-22 0 -40.5 7.5t-41.5 21.5q-22 12 -33.5 17t-24.5 5q-41 0 -46 -51h-58q3 55 30 85t71 30q22 0 40.5 -7.5
t41.5 -21.5q22 -12 33.5 -17t24.5 -5q40 0 46 51h58q-3 -55 -30 -85z" />
    <glyph glyph-name="o.smcp" horiz-adv-x="614" 
d="M449.5 526.5q60.5 -35.5 93.5 -100.5t33 -152t-33 -152t-93.5 -100.5t-142.5 -35.5q-81 0 -141.5 35.5t-93.5 100.5t-33 152t33 152t93.5 100.5t141.5 35.5q82 0 142.5 -35.5zM181 424.5q-46 -55.5 -46 -150.5t46 -150.5t126 -55.5t126.5 55.5t46.5 150.5t-46.5 150.5
t-126.5 55.5t-126 -55.5z" />
    <glyph glyph-name="oacute.smcp" horiz-adv-x="614" 
d="M449.5 526.5q60.5 -35.5 93.5 -100.5t33 -152t-33 -152t-93.5 -100.5t-142.5 -35.5q-81 0 -141.5 35.5t-93.5 100.5t-33 152t33 152t93.5 100.5t141.5 35.5q82 0 142.5 -35.5zM181 424.5q-46 -55.5 -46 -150.5t46 -150.5t126 -55.5t126.5 55.5t46.5 150.5t-46.5 150.5
t-126.5 55.5t-126 -55.5zM240 609l86 143h113l-123 -143h-76z" />
    <glyph glyph-name="obreve.smcp" horiz-adv-x="614" 
d="M449.5 526.5q60.5 -35.5 93.5 -100.5t33 -152t-33 -152t-93.5 -100.5t-142.5 -35.5q-81 0 -141.5 35.5t-93.5 100.5t-33 152t33 152t93.5 100.5t141.5 35.5q82 0 142.5 -35.5zM181 424.5q-46 -55.5 -46 -150.5t46 -150.5t126 -55.5t126.5 55.5t46.5 150.5t-46.5 150.5
t-126.5 55.5t-126 -55.5zM417.5 646.5q-40.5 -37.5 -109.5 -37.5t-110 37.5t-46 105.5h66q4 -39 28 -60t62 -21t61.5 21t28.5 60h65q-5 -68 -45.5 -105.5z" />
    <glyph glyph-name="ocircumflex.smcp" horiz-adv-x="614" 
d="M449.5 526.5q60.5 -35.5 93.5 -100.5t33 -152t-33 -152t-93.5 -100.5t-142.5 -35.5q-81 0 -141.5 35.5t-93.5 100.5t-33 152t33 152t93.5 100.5t141.5 35.5q82 0 142.5 -35.5zM181 424.5q-46 -55.5 -46 -150.5t46 -150.5t126 -55.5t126.5 55.5t46.5 150.5t-46.5 150.5
t-126.5 55.5t-126 -55.5zM307 702l-74 -93h-89l114 143h97l114 -143h-89z" />
    <glyph glyph-name="odieresis.smcp" horiz-adv-x="614" 
d="M449.5 526.5q60.5 -35.5 93.5 -100.5t33 -152t-33 -152t-93.5 -100.5t-142.5 -35.5q-81 0 -141.5 35.5t-93.5 100.5t-33 152t33 152t93.5 100.5t141.5 35.5q82 0 142.5 -35.5zM181 424.5q-46 -55.5 -46 -150.5t46 -150.5t126 -55.5t126.5 55.5t46.5 150.5t-46.5 150.5
t-126.5 55.5t-126 -55.5zM168 653v99h82v-99h-82zM363 653v99h82v-99h-82z" />
    <glyph glyph-name="ograve.smcp" horiz-adv-x="614" 
d="M449.5 526.5q60.5 -35.5 93.5 -100.5t33 -152t-33 -152t-93.5 -100.5t-142.5 -35.5q-81 0 -141.5 35.5t-93.5 100.5t-33 152t33 152t93.5 100.5t141.5 35.5q82 0 142.5 -35.5zM181 424.5q-46 -55.5 -46 -150.5t46 -150.5t126 -55.5t126.5 55.5t46.5 150.5t-46.5 150.5
t-126.5 55.5t-126 -55.5zM374 609h-76l-123 143h113z" />
    <glyph glyph-name="ohungarumlaut.smcp" horiz-adv-x="614" 
d="M449.5 526.5q60.5 -35.5 93.5 -100.5t33 -152t-33 -152t-93.5 -100.5t-142.5 -35.5q-81 0 -141.5 35.5t-93.5 100.5t-33 152t33 152t93.5 100.5t141.5 35.5q82 0 142.5 -35.5zM181 424.5q-46 -55.5 -46 -150.5t46 -150.5t126 -55.5t126.5 55.5t46.5 150.5t-46.5 150.5
t-126.5 55.5t-126 -55.5zM169 609l106 143h104l-136 -143h-74zM329 609l106 143h104l-136 -143h-74z" />
    <glyph glyph-name="omacron.smcp" horiz-adv-x="614" 
d="M449.5 526.5q60.5 -35.5 93.5 -100.5t33 -152t-33 -152t-93.5 -100.5t-142.5 -35.5q-81 0 -141.5 35.5t-93.5 100.5t-33 152t33 152t93.5 100.5t141.5 35.5q82 0 142.5 -35.5zM181 424.5q-46 -55.5 -46 -150.5t46 -150.5t126 -55.5t126.5 55.5t46.5 150.5t-46.5 150.5
t-126.5 55.5t-126 -55.5zM165 656v64h284v-64h-284z" />
    <glyph glyph-name="oslash.smcp" horiz-adv-x="614" 
d="M576 274q0 -87 -33 -152t-93.5 -100.5t-142.5 -35.5q-89 0 -154 43l-49 -61l-49 38l51 65q-33 37 -50 89t-17 114q0 87 33 152t93.5 100.5t141.5 35.5q90 0 156 -43l47 60l50 -37l-51 -64q67 -78 67 -204zM179 426.5q-47 -56.5 -47 -152.5q0 -77 31 -131l246 308
q-43 32 -102 32q-81 0 -128 -56.5zM435 121.5q47 56.5 47 152.5q0 78 -30 129l-246 -307q42 -31 101 -31q81 0 128 56.5z" />
    <glyph glyph-name="otilde.smcp" horiz-adv-x="614" 
d="M449.5 526.5q60.5 -35.5 93.5 -100.5t33 -152t-33 -152t-93.5 -100.5t-142.5 -35.5q-81 0 -141.5 35.5t-93.5 100.5t-33 152t33 152t93.5 100.5t141.5 35.5q82 0 142.5 -35.5zM181 424.5q-46 -55.5 -46 -150.5t46 -150.5t126 -55.5t126.5 55.5t46.5 150.5t-46.5 150.5
t-126.5 55.5t-126 -55.5zM450 661q-27 -30 -71 -30q-22 0 -40.5 7.5t-41.5 21.5q-22 12 -33.5 17t-24.5 5q-41 0 -46 -51h-58q3 55 30 85t71 30q22 0 40.5 -7.5t41.5 -21.5q22 -12 33.5 -17t24.5 -5q40 0 46 51h58q-3 -55 -30 -85z" />
    <glyph glyph-name="oe.smcp" horiz-adv-x="836" 
d="M484 469v-150h276v-78h-276v-162h301v-79h-444q-144 0 -223 71.5t-79 202.5t79 202.5t223 71.5h437v-79h-294zM189 418q-54 -51 -54 -144t54 -144t153 -51h51v390h-51q-99 0 -153 -51z" />
    <glyph glyph-name="p.smcp" horiz-adv-x="526" 
d="M446.5 502q54.5 -46 54.5 -128q0 -81 -54.5 -127t-156.5 -46h-113v-201h-92v548h205q102 0 156.5 -46zM177 279h105q62 0 93 24.5t31 71.5q0 95 -124 95h-105v-191z" />
    <glyph glyph-name="thorn.smcp" horiz-adv-x="526" 
d="M290 453q102 0 156.5 -46t54.5 -128q0 -81 -54.5 -127t-156.5 -46h-113v-106h-92v548h92v-95h113zM177 184h105q62 0 93 24.5t31 71.5q0 95 -124 95h-105v-191z" />
    <glyph glyph-name="q.smcp" horiz-adv-x="614" 
d="M508 68l61 -63l-54 -52l-66 68q-59 -35 -142 -35q-81 0 -141.5 35t-93.5 100t-33 153q0 87 33 152t93.5 100.5t141.5 35.5q82 0 142.5 -35.5t93.5 -100.5t33 -152q0 -129 -68 -206zM181.5 121q46.5 -56 126.5 -56q46 0 81 19l-74 75l54 52l76 -77q37 54 37 139
q0 96 -47 151.5t-127 55.5t-126.5 -55.5t-46.5 -151.5t46.5 -152z" />
    <glyph glyph-name="r.smcp" horiz-adv-x="546" 
d="M488 397q0 -51 -29.5 -88.5t-78.5 -48.5v-2q31 -10 48 -31t37 -73l58 -154h-98l-50 139q-16 47 -39.5 64.5t-68.5 17.5h-90v-221h-92v548h196q207 0 207 -151zM177 295h99q60 0 89.5 25.5t29.5 68.5q0 44 -31 63.5t-91 19.5h-96v-177z" />
    <glyph glyph-name="racute.smcp" horiz-adv-x="546" 
d="M488 397q0 -51 -29.5 -88.5t-78.5 -48.5v-2q31 -10 48 -31t37 -73l58 -154h-98l-50 139q-16 47 -39.5 64.5t-68.5 17.5h-90v-221h-92v548h196q207 0 207 -151zM177 295h99q60 0 89.5 25.5t29.5 68.5q0 44 -31 63.5t-91 19.5h-96v-177zM206 609l86 143h113l-123 -143h-76z
" />
    <glyph glyph-name="rcaron.smcp" horiz-adv-x="546" 
d="M488 397q0 -51 -29.5 -88.5t-78.5 -48.5v-2q31 -10 48 -31t37 -73l58 -154h-98l-50 139q-16 47 -39.5 64.5t-68.5 17.5h-90v-221h-92v548h196q207 0 207 -151zM177 295h99q60 0 89.5 25.5t29.5 68.5q0 44 -31 63.5t-91 19.5h-96v-177zM225 609l-114 143h89l74 -93l73 93
h89l-114 -143h-97z" />
    <glyph glyph-name="rcommaaccent.smcp" horiz-adv-x="546" 
d="M488 397q0 -51 -29.5 -88.5t-78.5 -48.5v-2q31 -10 48 -31t37 -73l58 -154h-98l-50 139q-16 47 -39.5 64.5t-68.5 17.5h-90v-221h-92v548h196q207 0 207 -151zM177 295h99q60 0 89.5 25.5t29.5 68.5q0 44 -31 63.5t-91 19.5h-96v-177zM281 -257h-38l38 103h-34v89h89v-89
z" />
    <glyph glyph-name="s.smcp" horiz-adv-x="523" 
d="M407 516q54 -46 54 -136h-91q0 107 -125 107q-50 0 -78 -20.5t-28 -56.5q0 -26 14 -41t41 -25t79 -21q66 -15 107.5 -32t67.5 -49t26 -86q0 -78 -58.5 -124t-156.5 -46q-105 0 -164 50.5t-59 144.5h92q0 -61 34.5 -90t97.5 -29q59 0 90 23t31 65q0 37 -30.5 55t-104.5 34
q-70 17 -109.5 33t-64.5 47t-25 84q0 71 54 115t146 44q106 0 160 -46z" />
    <glyph glyph-name="sacute.smcp" horiz-adv-x="523" 
d="M407 516q54 -46 54 -136h-91q0 107 -125 107q-50 0 -78 -20.5t-28 -56.5q0 -26 14 -41t41 -25t79 -21q66 -15 107.5 -32t67.5 -49t26 -86q0 -78 -58.5 -124t-156.5 -46q-105 0 -164 50.5t-59 144.5h92q0 -61 34.5 -90t97.5 -29q59 0 90 23t31 65q0 37 -30.5 55t-104.5 34
q-70 17 -109.5 33t-64.5 47t-25 84q0 71 54 115t146 44q106 0 160 -46zM180 609l86 143h113l-123 -143h-76z" />
    <glyph glyph-name="scaron.smcp" horiz-adv-x="523" 
d="M407 516q54 -46 54 -136h-91q0 107 -125 107q-50 0 -78 -20.5t-28 -56.5q0 -26 14 -41t41 -25t79 -21q66 -15 107.5 -32t67.5 -49t26 -86q0 -78 -58.5 -124t-156.5 -46q-105 0 -164 50.5t-59 144.5h92q0 -61 34.5 -90t97.5 -29q59 0 90 23t31 65q0 37 -30.5 55t-104.5 34
q-70 17 -109.5 33t-64.5 47t-25 84q0 71 54 115t146 44q106 0 160 -46zM198 609l-114 143h89l74 -93l73 93h89l-114 -143h-97z" />
    <glyph glyph-name="scedilla.smcp" horiz-adv-x="523" 
d="M425 40q-49 -45 -133 -53l-32 -49q18 3 26 3q33 0 56.5 -20.5t23.5 -53.5q0 -37 -28.5 -62t-81.5 -25q-54 0 -105 27l18 37q36 -21 78 -21q27 0 41.5 10.5t14.5 30.5q0 19 -14.5 30.5t-38.5 11.5q-18 0 -31 -6l-18 20l44 66q-99 4 -154 54t-55 141h92q0 -61 34.5 -90
t97.5 -29q59 0 90 23t31 65q0 37 -30.5 55t-104.5 34q-70 17 -109.5 33t-64.5 47t-25 84q0 71 54 115t146 44q106 0 160 -46t54 -136h-91q0 107 -125 107q-50 0 -78 -20.5t-28 -56.5q0 -26 14 -41t41 -25t79 -21q66 -15 107.5 -32t67.5 -49t26 -86q0 -71 -49 -116z" />
    <glyph glyph-name="scircumflex.smcp" horiz-adv-x="523" 
d="M407 516q54 -46 54 -136h-91q0 107 -125 107q-50 0 -78 -20.5t-28 -56.5q0 -26 14 -41t41 -25t79 -21q66 -15 107.5 -32t67.5 -49t26 -86q0 -78 -58.5 -124t-156.5 -46q-105 0 -164 50.5t-59 144.5h92q0 -61 34.5 -90t97.5 -29q59 0 90 23t31 65q0 37 -30.5 55t-104.5 34
q-70 17 -109.5 33t-64.5 47t-25 84q0 71 54 115t146 44q106 0 160 -46zM247 702l-74 -93h-89l114 143h97l114 -143h-89z" />
    <glyph glyph-name="scommaaccent.smcp" horiz-adv-x="523" 
d="M407 516q54 -46 54 -136h-91q0 107 -125 107q-50 0 -78 -20.5t-28 -56.5q0 -26 14 -41t41 -25t79 -21q66 -15 107.5 -32t67.5 -49t26 -86q0 -78 -58.5 -124t-156.5 -46q-105 0 -164 50.5t-59 144.5h92q0 -61 34.5 -90t97.5 -29q59 0 90 23t31 65q0 37 -30.5 55t-104.5 34
q-70 17 -109.5 33t-64.5 47t-25 84q0 71 54 115t146 44q106 0 160 -46zM248 -257h-38l38 103h-34v89h89v-89z" />
    <glyph glyph-name="germandbls.smcp" horiz-adv-x="666" 
d="M615 151q0 -79 -52.5 -122t-141.5 -43q-87 0 -133.5 41t-46.5 119h88q0 -40 23 -61.5t69 -21.5t72.5 23t26.5 66q0 53 -44.5 80t-134.5 34v66l111 112q-48 40 -117 40q-80 0 -121.5 -41.5t-41.5 -124.5v-318h-92v320q0 116 67 179t190 63q72 0 132.5 -28.5t100.5 -76.5
l-127 -130q172 -38 172 -176z" />
    <glyph glyph-name="t.smcp" horiz-adv-x="500" 
d="M296 468v-468h-92v468h-194v80h480v-80h-194z" />
    <glyph glyph-name="tbar.smcp" horiz-adv-x="500" 
d="M296 311h109v-66h-109v-245h-92v245h-110v66h110v157h-194v80h480v-80h-194v-157z" />
    <glyph glyph-name="tcaron.smcp" horiz-adv-x="500" 
d="M296 468v-468h-92v468h-194v80h480v-80h-194zM201 609l-114 143h89l74 -93l73 93h89l-114 -143h-97z" />
    <glyph glyph-name="uni0163.smcp" horiz-adv-x="500" 
d="M296 468v-468h-92v468h-194v80h480v-80h-194zM239 -257h-38l38 103h-34v89h89v-89z" />
    <glyph glyph-name="uni021B.smcp" horiz-adv-x="500" 
d="M296 468v-468h-92v468h-194v80h480v-80h-194zM239 -257h-38l38 103h-34v89h89v-89z" />
    <glyph glyph-name="u.smcp" horiz-adv-x="603" 
d="M466 42.5q-57 -56.5 -164 -56.5q-108 0 -165 56.5t-57 163.5v342h91v-341q0 -68 34.5 -103.5t96.5 -35.5t96 35t34 104v341h91v-342q0 -107 -57 -163.5z" />
    <glyph glyph-name="uacute.smcp" horiz-adv-x="603" 
d="M466 42.5q-57 -56.5 -164 -56.5q-108 0 -165 56.5t-57 163.5v342h91v-341q0 -68 34.5 -103.5t96.5 -35.5t96 35t34 104v341h91v-342q0 -107 -57 -163.5zM235 609l86 143h113l-123 -143h-76z" />
    <glyph glyph-name="ubreve.smcp" horiz-adv-x="603" 
d="M466 42.5q-57 -56.5 -164 -56.5q-108 0 -165 56.5t-57 163.5v342h91v-341q0 -68 34.5 -103.5t96.5 -35.5t96 35t34 104v341h91v-342q0 -107 -57 -163.5zM411.5 646.5q-40.5 -37.5 -109.5 -37.5t-110 37.5t-46 105.5h66q4 -39 28 -60t62 -21t61.5 21t28.5 60h65
q-5 -68 -45.5 -105.5z" />
    <glyph glyph-name="ucircumflex.smcp" horiz-adv-x="603" 
d="M466 42.5q-57 -56.5 -164 -56.5q-108 0 -165 56.5t-57 163.5v342h91v-341q0 -68 34.5 -103.5t96.5 -35.5t96 35t34 104v341h91v-342q0 -107 -57 -163.5zM302 702l-74 -93h-89l114 143h97l114 -143h-89z" />
    <glyph glyph-name="udieresis.smcp" horiz-adv-x="603" 
d="M466 42.5q-57 -56.5 -164 -56.5q-108 0 -165 56.5t-57 163.5v342h91v-341q0 -68 34.5 -103.5t96.5 -35.5t96 35t34 104v341h91v-342q0 -107 -57 -163.5zM163 653v99h82v-99h-82zM358 653v99h82v-99h-82z" />
    <glyph glyph-name="ugrave.smcp" horiz-adv-x="603" 
d="M466 42.5q-57 -56.5 -164 -56.5q-108 0 -165 56.5t-57 163.5v342h91v-341q0 -68 34.5 -103.5t96.5 -35.5t96 35t34 104v341h91v-342q0 -107 -57 -163.5zM368 609h-76l-123 143h113z" />
    <glyph glyph-name="uhungarumlaut.smcp" horiz-adv-x="603" 
d="M466 42.5q-57 -56.5 -164 -56.5q-108 0 -165 56.5t-57 163.5v342h91v-341q0 -68 34.5 -103.5t96.5 -35.5t96 35t34 104v341h91v-342q0 -107 -57 -163.5zM163 609l106 143h104l-136 -143h-74zM323 609l106 143h104l-136 -143h-74z" />
    <glyph glyph-name="umacron.smcp" horiz-adv-x="603" 
d="M466 42.5q-57 -56.5 -164 -56.5q-108 0 -165 56.5t-57 163.5v342h91v-341q0 -68 34.5 -103.5t96.5 -35.5t96 35t34 104v341h91v-342q0 -107 -57 -163.5zM159 656v64h284v-64h-284z" />
    <glyph glyph-name="uogonek.smcp" horiz-adv-x="603" 
d="M501.5 94.5q-22.5 -47.5 -69.5 -86.5q-41 -35 -58 -60t-17 -50q0 -36 41 -36q21 0 38 7v-53q-25 -10 -58 -10q-50 0 -75 21t-25 59q0 29 15.5 52.5t48.5 51.5v2q-16 -3 -40 -3q-107 0 -164.5 56.5t-57.5 162.5v340h92v-339q0 -68 34 -103t96 -35t96 35t34 103v339h92
v-340q0 -66 -22.5 -113.5z" />
    <glyph glyph-name="uring.smcp" horiz-adv-x="603" 
d="M466 42.5q-57 -56.5 -164 -56.5q-108 0 -165 56.5t-57 163.5v342h91v-341q0 -68 34.5 -103.5t96.5 -35.5t96 35t34 104v341h91v-342q0 -107 -57 -163.5zM372.5 776.5q29.5 -29.5 29.5 -70.5q0 -42 -29.5 -71.5t-71.5 -29.5q-41 0 -70.5 29.5t-29.5 71.5q0 41 29.5 70.5
t70.5 29.5q42 0 71.5 -29.5zM261 747q-17 -17 -17 -41t17 -41t40 -17q25 0 41.5 16.5t16.5 41.5q0 24 -16.5 41t-41.5 17q-23 0 -40 -17z" />
    <glyph glyph-name="utilde.smcp" horiz-adv-x="603" 
d="M466 42.5q-57 -56.5 -164 -56.5q-108 0 -165 56.5t-57 163.5v342h91v-341q0 -68 34.5 -103.5t96.5 -35.5t96 35t34 104v341h91v-342q0 -107 -57 -163.5zM444 661q-27 -30 -71 -30q-22 0 -40.5 7.5t-41.5 21.5q-22 12 -33.5 17t-24.5 5q-41 0 -46 -51h-58q3 55 30 85
t71 30q22 0 40.5 -7.5t41.5 -21.5q22 -12 33.5 -17t24.5 -5q40 0 46 51h58q-3 -55 -30 -85z" />
    <glyph glyph-name="v.smcp" horiz-adv-x="520" 
d="M199 0l-193 548h96l84 -241q30 -84 73 -222h2q44 141 74 222l83 241h96l-192 -548h-123z" />
    <glyph glyph-name="w.smcp" horiz-adv-x="769" 
d="M498 0l-58 237l-54 233h-2l-54 -233l-58 -237h-133l-129 548h91l49 -212l56 -252h2l60 253l52 211h130l52 -211l60 -253h2q25 120 56 252l49 212h91l-129 -548h-133z" />
    <glyph glyph-name="wacute.smcp" horiz-adv-x="769" 
d="M498 0l-58 237l-54 233h-2l-54 -233l-58 -237h-133l-129 548h91l49 -212l56 -252h2l60 253l52 211h130l52 -211l60 -253h2q25 120 56 252l49 212h91l-129 -548h-133zM318 609l86 143h113l-123 -143h-76z" />
    <glyph glyph-name="wcircumflex.smcp" horiz-adv-x="769" 
d="M498 0l-58 237l-54 233h-2l-54 -233l-58 -237h-133l-129 548h91l49 -212l56 -252h2l60 253l52 211h130l52 -211l60 -253h2q25 120 56 252l49 212h91l-129 -548h-133zM385 702l-74 -93h-89l114 143h97l114 -143h-89z" />
    <glyph glyph-name="wdieresis.smcp" horiz-adv-x="769" 
d="M498 0l-58 237l-54 233h-2l-54 -233l-58 -237h-133l-129 548h91l49 -212l56 -252h2l60 253l52 211h130l52 -211l60 -253h2q25 120 56 252l49 212h91l-129 -548h-133zM246 653v99h82v-99h-82zM441 653v99h82v-99h-82z" />
    <glyph glyph-name="wgrave.smcp" horiz-adv-x="769" 
d="M498 0l-58 237l-54 233h-2l-54 -233l-58 -237h-133l-129 548h91l49 -212l56 -252h2l60 253l52 211h130l52 -211l60 -253h2q25 120 56 252l49 212h91l-129 -548h-133zM452 609h-76l-123 143h113z" />
    <glyph glyph-name="x.smcp" horiz-adv-x="524" 
d="M517 0h-110l-144 214h-2l-145 -214h-110l198 283l-186 265h107l136 -200h2l135 200h108l-187 -265z" />
    <glyph glyph-name="y.smcp" horiz-adv-x="516" 
d="M303 0h-91v222l-209 326h105l66 -108q44 -71 82 -140h2q29 53 83 140l66 108h105l-209 -326v-222z" />
    <glyph glyph-name="yacute.smcp" horiz-adv-x="516" 
d="M303 0h-91v222l-209 326h105l66 -108q44 -71 82 -140h2q29 53 83 140l66 108h105l-209 -326v-222zM191 609l86 143h113l-123 -143h-76z" />
    <glyph glyph-name="ycircumflex.smcp" horiz-adv-x="516" 
d="M303 0h-91v222l-209 326h105l66 -108q44 -71 82 -140h2q29 53 83 140l66 108h105l-209 -326v-222zM258 702l-74 -93h-89l114 143h97l114 -143h-89z" />
    <glyph glyph-name="ydieresis.smcp" horiz-adv-x="516" 
d="M303 0h-91v222l-209 326h105l66 -108q44 -71 82 -140h2q29 53 83 140l66 108h105l-209 -326v-222zM119 653v99h82v-99h-82zM314 653v99h82v-99h-82z" />
    <glyph glyph-name="ygrave.smcp" horiz-adv-x="516" 
d="M303 0h-91v222l-209 326h105l66 -108q44 -71 82 -140h2q29 53 83 140l66 108h105l-209 -326v-222zM324 609h-76l-123 143h113z" />
    <glyph glyph-name="z.smcp" horiz-adv-x="470" 
d="M124 81v-2h330v-79h-438v86l316 381v2h-306v79h413v-86z" />
    <glyph glyph-name="zacute.smcp" horiz-adv-x="470" 
d="M124 81v-2h330v-79h-438v86l316 381v2h-306v79h413v-86zM166 609l86 143h113l-123 -143h-76z" />
    <glyph glyph-name="zcaron.smcp" horiz-adv-x="470" 
d="M124 81v-2h330v-79h-438v86l316 381v2h-306v79h413v-86zM184 609l-114 143h89l74 -93l73 93h89l-114 -143h-97z" />
    <glyph glyph-name="zdotaccent.smcp" horiz-adv-x="470" 
d="M124 81v-2h330v-79h-438v86l316 381v2h-306v79h413v-86zM188 653v99h88v-99h-88z" />
    <glyph glyph-name="ccedilla.smcp.ss01" horiz-adv-x="587" 
d="M466.5 506.5q63.5 -55.5 68.5 -146.5h-95q-6 57 -45 88.5t-99 31.5q-75 0 -118.5 -55t-43.5 -151t43.5 -151t118.5 -55q59 0 98 32.5t47 90.5h97q-9 -96 -73 -150.5t-169 -54.5q-120 0 -189 76.5t-69 211.5q0 134 69 211t189 77q107 0 170.5 -55.5zM140 -211l129 162h80
l-99 -162h-110z" />
    <glyph glyph-name="scedilla.smcp.ss01" horiz-adv-x="523" 
d="M407 516q54 -46 54 -136h-91q0 107 -125 107q-50 0 -78 -20.5t-28 -56.5q0 -26 14 -41t41 -25t79 -21q66 -15 107.5 -32t67.5 -49t26 -86q0 -78 -58.5 -124t-156.5 -46q-105 0 -164 50.5t-59 144.5h92q0 -61 34.5 -90t97.5 -29q59 0 90 23t31 65q0 37 -30.5 55t-104.5 34
q-70 17 -109.5 33t-64.5 47t-25 84q0 71 54 115t146 44q106 0 160 -46zM103 -211l129 162h80l-99 -162h-110z" />
    <glyph glyph-name="uni0163.smcp.ss01" horiz-adv-x="500" 
d="M296 468v-468h-92v468h-194v80h480v-80h-194zM94 -211l129 162h80l-99 -162h-110z" />
    <glyph glyph-name="ordfeminine" unicode="&#xaa;" horiz-adv-x="393" 
d="M302.5 660.5q38.5 -35.5 38.5 -105.5v-131q0 -54 9 -94h-68q-5 27 -5 50h-2q-41 -58 -126 -58q-57 0 -91 29.5t-34 76.5t32.5 74.5t110.5 39.5q71 9 101 11v12q0 76 -77 76q-36 0 -55.5 -17t-20.5 -47h-76q3 52 42.5 85.5t110.5 33.5q72 0 110.5 -35.5zM179 489
q-43 -7 -60.5 -19.5t-17.5 -36.5q0 -25 18 -40t51 -15q21 0 39.5 6.5t30.5 18.5q16 16 22 32.5t6 45.5v19q-48 -4 -89 -11z" />
    <glyph glyph-name="ordmasculine" unicode="&#xba;" horiz-adv-x="416" 
d="M339 645.5q48 -50.5 48 -137.5q0 -88 -48 -138t-131 -50q-82 0 -130.5 50.5t-48.5 137.5t48.5 137.5t130.5 50.5q83 0 131 -50.5zM136 601q-26 -34 -26 -93t26 -93t72 -34q47 0 73.5 34t26.5 93t-26.5 93t-73.5 34q-46 0 -72 -34z" />
    <glyph glyph-name="uni0394" unicode="&#x394;" horiz-adv-x="675" 
d="M5 0l271 712h125l270 -712h-666zM441 358l-103 290h-2l-103 -290l-101 -276h410z" />
    <glyph glyph-name="uni03A9" unicode="&#x3a9;" horiz-adv-x="729" 
d="M594 646q86 -80 86 -235q0 -96 -41.5 -173t-117.5 -155v-2h170v-81h-264v84q76 78 116.5 151.5t40.5 165.5q0 118 -60 179.5t-160 61.5q-99 0 -159 -61.5t-60 -179.5q0 -92 40.5 -165.5t116.5 -151.5v-84h-264v81h170v2q-76 78 -117.5 155t-41.5 173q0 155 86 235t229 80
q144 0 230 -80z" />
    <glyph glyph-name="uni03BC" unicode="&#x3bc;" horiz-adv-x="583" 
d="M509.5 83.5q10.5 -16.5 36.5 -16.5q12 0 24 3v-67q-27 -9 -60 -9q-42 0 -64.5 19.5t-28.5 62.5h-2q-18 -38 -56 -60.5t-86 -22.5q-74 0 -107 42v-220h-88v693h88v-301q0 -77 28.5 -110.5t84.5 -33.5q57 0 94.5 41t37.5 114v290h88v-363q0 -45 10.5 -61.5z" />
    <glyph glyph-name="pi" unicode="&#x3c0;" horiz-adv-x="652" 
d="M516 438v-281q0 -52 17 -72t52 -20q14 0 30 4v-67q-24 -8 -60 -8q-64 0 -95.5 35t-31.5 118v291h-225v-438h-88v438h-103v70h621v-70h-117z" />
    <glyph glyph-name="zero.lf" horiz-adv-x="590" 
d="M476 597.5q63 -90.5 63 -260.5t-63 -260.5t-181 -90.5t-181 90.5t-63 260.5t63 260.5t181 90.5t181 -90.5zM185 538q-38 -69 -38 -201q0 -133 38 -202.5t110 -69.5q73 0 111 69.5t38 202.5q0 132 -38 201t-111 69q-72 0 -110 -69z" />
    <glyph glyph-name="one.lf" horiz-adv-x="360" 
d="M166 0v491h-151v70q79 0 116.5 26t47.5 87h78v-674h-91z" />
    <glyph glyph-name="two.lf" horiz-adv-x="570" 
d="M401.5 664.5q48.5 -23.5 75.5 -66t27 -98.5t-22.5 -97t-61 -71.5t-101.5 -67.5q-66 -38 -101 -68t-48 -56.5t-14 -60.5h364v-79h-465q-1 7 -1 20q0 68 15.5 115.5t58.5 91t125 91.5q59 35 90 58.5t48 52.5t17 69q0 49 -32.5 79.5t-87.5 30.5q-123 0 -131 -132h-94
q4 100 64.5 156t161.5 56q64 0 112.5 -23.5z" />
    <glyph glyph-name="three.lf" horiz-adv-x="563" 
d="M438.5 638q59.5 -50 59.5 -134q0 -59 -28.5 -97t-88.5 -60v-2q66 -22 97 -62.5t31 -105.5q0 -56 -29 -99.5t-81.5 -67.5t-120.5 -24q-111 0 -172 57t-61 160h93q0 -67 36 -102.5t104 -35.5q61 0 99 32t38 83q0 59 -41 90.5t-119 31.5h-27v77h27q69 0 109.5 31.5
t40.5 85.5q0 51 -36 82t-96 31q-62 0 -95.5 -33.5t-33.5 -100.5h-93q0 100 60.5 156.5t165.5 56.5q102 0 161.5 -50z" />
    <glyph glyph-name="four.lf" horiz-adv-x="550" 
d="M424 174v-174h-91v174h-318v83l286 417h123v-424h110v-76h-110zM334 250v92q0 125 3 251h-2l-155 -232l-77 -111h231z" />
    <glyph glyph-name="five.lf" horiz-adv-x="562" 
d="M173 596l-20 -209h2q23 27 59 41.5t77 14.5q65 0 114.5 -27.5t76.5 -77.5t27 -117q0 -71 -29 -124t-82.5 -82t-124.5 -29q-100 0 -159.5 52t-59.5 141h94q1 -53 35.5 -83t89.5 -30q65 0 103 40.5t38 111.5q0 69 -36.5 108t-99.5 39q-50 0 -83 -24.5t-45 -70.5l-91 6
l37 398h382v-78h-305z" />
    <glyph glyph-name="six.lf" horiz-adv-x="566" 
d="M447 638.5q55 -49.5 63 -137.5h-94q-18 107 -117 107q-73 0 -115.5 -63t-45.5 -192h2q59 86 166 86q63 0 111.5 -27.5t75 -78t26.5 -115.5q0 -68 -29 -121t-81 -82t-120 -29q-116 0 -177 82t-61 243q0 183 65.5 280t185.5 97q90 0 145 -49.5zM191.5 322.5
q-37.5 -41.5 -37.5 -106.5q0 -69 36.5 -109.5t98.5 -40.5q61 0 98 41t37 109q0 66 -36.5 107t-97.5 41t-98.5 -41.5z" />
    <glyph glyph-name="seven.lf" horiz-adv-x="470" 
d="M313.5 326q-61.5 -151 -94.5 -326h-101q42 189 106 338.5t136 255.5h-345v80h439v-81q-79 -116 -140.5 -267z" />
    <glyph glyph-name="eight.lf" horiz-adv-x="567" 
d="M398 664.5q51 -23.5 79.5 -65.5t28.5 -96t-31.5 -93t-86.5 -60v-2q63 -19 97 -61.5t34 -104.5q0 -58 -29.5 -102.5t-83.5 -69t-123 -24.5t-122.5 24.5t-83 69t-29.5 102.5q0 62 34 104.5t96 61.5v2q-55 21 -86 60.5t-31 92.5q0 54 28.5 96t79 65.5t114.5 23.5t115 -23.5z
M188 579q-36 -30 -36 -79q0 -52 35.5 -83t95.5 -31t95.5 31t35.5 83q0 49 -36 79t-95 30t-95 -30zM180.5 274.5q-39.5 -33.5 -39.5 -86.5q0 -55 39 -88.5t103 -33.5t103 33.5t39 88.5q0 53 -39.5 86.5t-102.5 33.5t-102.5 -33.5z" />
    <glyph glyph-name="nine.lf" horiz-adv-x="566" 
d="M119 35.5q-55 49.5 -63 137.5h94q18 -107 117 -107q73 0 115.5 63t45.5 192h-2q-59 -86 -166 -86q-63 0 -111.5 27.5t-75 78t-26.5 115.5q0 68 29 121t81 82t120 29q116 0 177 -82t61 -243q0 -183 -65.5 -280t-185.5 -97q-90 0 -145 49.5zM374.5 351.5
q37.5 41.5 37.5 106.5q0 69 -36.5 109.5t-98.5 40.5q-61 0 -98 -41t-37 -109q0 -66 36.5 -107t97.5 -41t98.5 41.5z" />
    <glyph glyph-name="fraction" unicode="&#x2044;" horiz-adv-x="147" 
d="M-155 0l384 674h74l-385 -674h-73z" />
    <glyph glyph-name="onehalf" unicode="&#xbd;" horiz-adv-x="755" 
d="M103 270v278h-94v58q49 0 73.5 16t31.5 52h66v-404h-77zM84 0l384 674h74l-385 -674h-73zM675 381q38 -32 38 -84q0 -49 -30 -81t-86 -62q-56 -29 -75.5 -48.5t-20.5 -42.5h223v-63h-304q-1 5 -1 16q0 44 10 74t36.5 56t77.5 54q52 29 72.5 47.5t20.5 49.5q0 24 -17 38.5
t-47 14.5q-68 0 -70 -69h-77q1 62 41 97t106 35q65 0 103 -32z" />
    <glyph glyph-name="onequarter" unicode="&#xbc;" horiz-adv-x="721" 
d="M103 270v278h-94v58q49 0 73.5 16t31.5 52h66v-404h-77zM84 0l384 674h74l-385 -674h-73zM645 95v-95h-75v95h-195v66l171 243h99v-246h66v-63h-66zM572 158v49q0 45 2 133h-2q-40 -63 -84 -123l-42 -59h126z" />
    <glyph glyph-name="threequarters" unicode="&#xbe;" horiz-adv-x="847" 
d="M286 652.5q39 -30.5 39 -81.5q0 -34 -16 -55.5t-52 -36.5v-2q40 -14 57.5 -37.5t17.5 -61.5q0 -53 -41.5 -85t-109.5 -32q-74 0 -114.5 35.5t-40.5 99.5h77q0 -72 78 -72q34 0 54.5 15.5t20.5 41.5q0 31 -23.5 47t-68.5 16h-13v61h13q39 0 62.5 16t23.5 44q0 26 -19 40.5
t-52 14.5q-73 0 -73 -68h-75q0 62 40 96.5t109 34.5q67 0 106 -30.5zM209 0l384 674h74l-385 -674h-73zM771 95v-95h-75v95h-195v66l171 243h99v-246h66v-63h-66zM698 158v49q0 45 2 133h-2q-40 -63 -84 -123l-42 -59h126z" />
    <glyph glyph-name="oneeighth" unicode="&#x215b;" horiz-adv-x="751" 
d="M103 270v278h-94v58q49 0 73.5 16t31.5 52h66v-404h-77zM84 0l384 674h74l-385 -674h-73zM673.5 381.5q40.5 -31.5 40.5 -82.5q0 -30 -17.5 -53t-50.5 -36v-1q77 -24 77 -98q0 -55 -42.5 -87.5t-112.5 -32.5t-111.5 32.5t-41.5 87.5q0 74 77 98v1q-33 13 -51 35.5
t-18 53.5q0 51 40.5 82.5t104.5 31.5q65 0 105.5 -31.5zM516 336.5q-20 -14.5 -20 -39.5q0 -27 19.5 -43t52.5 -16q34 0 53.5 15.5t19.5 43.5q0 25 -20 39.5t-53 14.5q-32 0 -52 -14.5zM512.5 160q-21.5 -17 -21.5 -45t21 -45t56 -17q36 0 57.5 17t21.5 45t-22 45t-57 17
q-34 0 -55.5 -17z" />
    <glyph glyph-name="threeeighths" unicode="&#x215c;" horiz-adv-x="877" 
d="M286 652.5q39 -30.5 39 -81.5q0 -34 -16 -55.5t-52 -36.5v-2q40 -14 57.5 -37.5t17.5 -61.5q0 -53 -41.5 -85t-109.5 -32q-74 0 -114.5 35.5t-40.5 99.5h77q0 -72 78 -72q34 0 54.5 15.5t20.5 41.5q0 31 -23.5 47t-68.5 16h-13v61h13q39 0 62.5 16t23.5 44q0 26 -19 40.5
t-52 14.5q-73 0 -73 -68h-75q0 62 40 96.5t109 34.5q67 0 106 -30.5zM209 0l384 674h74l-385 -674h-73zM799.5 381.5q40.5 -31.5 40.5 -82.5q0 -30 -17.5 -53t-50.5 -36v-1q77 -24 77 -98q0 -55 -42.5 -87.5t-112.5 -32.5t-111.5 32.5t-41.5 87.5q0 74 77 98v1
q-33 13 -51 35.5t-18 53.5q0 51 40.5 82.5t104.5 31.5q65 0 105.5 -31.5zM642 336.5q-20 -14.5 -20 -39.5q0 -27 19.5 -43t52.5 -16q34 0 53.5 15.5t19.5 43.5q0 25 -20 39.5t-53 14.5q-32 0 -52 -14.5zM638.5 160q-21.5 -17 -21.5 -45t21 -45t56 -17q36 0 57.5 17t21.5 45
t-22 45t-57 17q-34 0 -55.5 -17z" />
    <glyph glyph-name="fiveeighths" unicode="&#x215d;" horiz-adv-x="877" 
d="M124 610l-10 -99h1q28 28 80 28q63 0 100.5 -37.5t37.5 -99.5q0 -64 -42 -102.5t-111 -38.5q-67 0 -107 32t-40 88h76q1 -27 20.5 -42.5t49.5 -15.5q36 0 57 21t21 58q0 35 -20.5 55.5t-53.5 20.5q-28 0 -46.5 -13t-24.5 -37l-75 5l23 241h252v-64h-188zM210 0l384 674
h74l-385 -674h-73zM799.5 381.5q40.5 -31.5 40.5 -82.5q0 -30 -17.5 -53t-50.5 -36v-1q77 -24 77 -98q0 -55 -42.5 -87.5t-112.5 -32.5t-111.5 32.5t-41.5 87.5q0 74 77 98v1q-33 13 -51 35.5t-18 53.5q0 51 40.5 82.5t104.5 31.5q65 0 105.5 -31.5zM642 336.5
q-20 -14.5 -20 -39.5q0 -27 19.5 -43t52.5 -16q34 0 53.5 15.5t19.5 43.5q0 25 -20 39.5t-53 14.5q-32 0 -52 -14.5zM638.5 160q-21.5 -17 -21.5 -45t21 -45t56 -17q36 0 57.5 17t21.5 45t-22 45t-57 17q-34 0 -55.5 -17z" />
    <glyph glyph-name="seveneighths" unicode="&#x215e;" horiz-adv-x="782" 
d="M224.5 457.5q-37.5 -89.5 -57.5 -187.5h-81q25 107 64.5 194.5t81.5 145.5h-223v64h301v-64q-48 -63 -85.5 -152.5zM115 0l384 674h74l-385 -674h-73zM704.5 381.5q40.5 -31.5 40.5 -82.5q0 -30 -17.5 -53t-50.5 -36v-1q77 -24 77 -98q0 -55 -42.5 -87.5t-112.5 -32.5
t-111.5 32.5t-41.5 87.5q0 74 77 98v1q-33 13 -51 35.5t-18 53.5q0 51 40.5 82.5t104.5 31.5q65 0 105.5 -31.5zM547 336.5q-20 -14.5 -20 -39.5q0 -27 19.5 -43t52.5 -16q34 0 53.5 15.5t19.5 43.5q0 25 -20 39.5t-53 14.5q-32 0 -52 -14.5zM543.5 160q-21.5 -17 -21.5 -45
t21 -45t56 -17q36 0 57.5 17t21.5 45t-22 45t-57 17q-34 0 -55.5 -17z" />
    <glyph glyph-name="zero.denominator" horiz-adv-x="379" 
d="M308 359q41 -54 41 -157t-41 -157t-118 -54t-118.5 54t-41.5 157t41.5 157t118.5 54t118 -54zM129 311q-21 -38 -21 -109t21 -109t61 -38t61 37.5t21 109.5t-21 109.5t-61 37.5t-61 -38z" />
    <glyph glyph-name="one.denominator" horiz-adv-x="239" 
d="M103 0v278h-94v58q49 0 73.5 16t31.5 52h66v-404h-77z" />
    <glyph glyph-name="two.denominator" horiz-adv-x="369" 
d="M289 381q38 -32 38 -84q0 -49 -30 -81t-86 -62q-56 -29 -75.5 -48.5t-20.5 -42.5h223v-63h-304q-1 5 -1 16q0 44 10 74t36.5 56t77.5 54q52 29 72.5 47.5t20.5 49.5q0 24 -17 38.5t-47 14.5q-68 0 -70 -69h-77q1 62 41 97t106 35q65 0 103 -32z" />
    <glyph glyph-name="three.denominator" horiz-adv-x="364" 
d="M287 382.5q39 -30.5 39 -81.5q0 -34 -16 -55.5t-52 -36.5v-2q39 -14 56.5 -37.5t17.5 -61.5q0 -53 -41 -85t-109 -32q-74 0 -114.5 35.5t-40.5 99.5h76q0 -37 19.5 -54.5t59.5 -17.5q34 0 54 15.5t20 41.5q0 31 -23 47t-68 16h-13v61h13q39 0 62.5 16t23.5 44
q0 26 -19 40.5t-52 14.5q-73 0 -73 -68h-75q0 62 40 96.5t109 34.5q67 0 106 -30.5z" />
    <glyph glyph-name="four.denominator" horiz-adv-x="355" 
d="M279 95v-95h-75v95h-195v66l171 243h99v-246h66v-63h-66zM206 158v49q0 45 2 133h-2q-40 -63 -84 -123l-42 -59h126z" />
    <glyph glyph-name="five.denominator" horiz-adv-x="365" 
d="M123 340l-10 -99h2q28 28 80 28q62 0 99.5 -37.5t37.5 -99.5q0 -64 -41.5 -102.5t-110.5 -38.5q-67 0 -107.5 32t-40.5 88h77q1 -27 20 -42.5t50 -15.5q36 0 56.5 21t20.5 58q0 35 -20 55.5t-54 20.5q-28 0 -46.5 -13t-24.5 -37l-74 5l22 241h252v-64h-188z" />
    <glyph glyph-name="six.denominator" horiz-adv-x="365" 
d="M291 381.5q37 -31.5 41 -87.5h-77q-9 57 -64 57q-80 0 -86 -129h1q36 42 98 42q59 0 96 -37t37 -96q0 -62 -41.5 -101t-108.5 -39q-76 0 -116.5 50.5t-40.5 147.5q0 108 43 166t121 58q60 0 97 -31.5zM134.5 182q-20.5 -21 -20.5 -54q0 -35 20 -54.5t53 -19.5t53.5 20.5
t20.5 54.5q0 33 -20 53.5t-52 20.5q-34 0 -54.5 -21z" />
    <glyph glyph-name="seven.denominator" horiz-adv-x="320" 
d="M224.5 187.5q-37.5 -89.5 -57.5 -187.5h-81q25 107 64.5 194.5t81.5 145.5h-223v64h301v-64q-48 -63 -85.5 -152.5z" />
    <glyph glyph-name="eight.denominator" horiz-adv-x="365" 
d="M287.5 381.5q40.5 -31.5 40.5 -82.5q0 -30 -17.5 -53t-50.5 -36v-1q77 -24 77 -98q0 -55 -42.5 -87.5t-112.5 -32.5t-111.5 32.5t-41.5 87.5q0 74 77 98v1q-33 13 -51 35.5t-18 53.5q0 51 40.5 82.5t104.5 31.5q65 0 105.5 -31.5zM130 336.5q-20 -14.5 -20 -39.5
q0 -27 19.5 -43t52.5 -16q34 0 53.5 15.5t19.5 43.5q0 25 -20 39.5t-53 14.5q-32 0 -52 -14.5zM126.5 160q-21.5 -17 -21.5 -45t21 -45t56 -17q36 0 57.5 17t21.5 45t-22 45t-57 17q-34 0 -55.5 -17z" />
    <glyph glyph-name="nine.denominator" horiz-adv-x="365" 
d="M74 23.5q-37 31.5 -41 87.5h77q9 -57 63 -57q81 0 87 129h-1q-36 -42 -98 -42q-59 0 -96 37t-37 96q0 62 41.5 101t108.5 39q76 0 116.5 -50.5t40.5 -147.5q0 -108 -43 -166t-121 -58q-60 0 -97 31.5zM230.5 223q20.5 21 20.5 54q0 35 -20 54.5t-53 19.5t-53.5 -20.5
t-20.5 -54.5q0 -33 20 -53.5t52 -20.5q34 0 54.5 21z" />
    <glyph glyph-name="zero.numerator" horiz-adv-x="379" 
d="M308 629q41 -54 41 -157t-41 -157t-118 -54t-118.5 54t-41.5 157t41.5 157t118.5 54t118 -54zM129 581q-21 -38 -21 -109t21 -109t61 -38t61 37.5t21 109.5t-21 109.5t-61 37.5t-61 -38z" />
    <glyph glyph-name="one.numerator" horiz-adv-x="239" 
d="M103 270v278h-94v58q49 0 73.5 16t31.5 52h66v-404h-77z" />
    <glyph glyph-name="two.numerator" horiz-adv-x="369" 
d="M288 651q38 -32 38 -84q0 -49 -30 -81t-86 -62q-56 -29 -75.5 -48.5t-20.5 -42.5h223v-63h-304q-1 5 -1 16q0 44 10 74t36.5 56t77.5 54q52 29 72.5 47.5t20.5 49.5q0 24 -17 38.5t-47 14.5q-68 0 -70 -69h-77q1 62 41 97t106 35q65 0 103 -32z" />
    <glyph glyph-name="three.numerator" horiz-adv-x="364" 
d="M286 652.5q39 -30.5 39 -81.5q0 -34 -16 -55.5t-52 -36.5v-2q40 -14 57.5 -37.5t17.5 -61.5q0 -53 -41.5 -85t-109.5 -32q-74 0 -114.5 35.5t-40.5 99.5h77q0 -72 78 -72q34 0 54.5 15.5t20.5 41.5q0 31 -23.5 47t-68.5 16h-13v61h13q39 0 62.5 16t23.5 44q0 26 -19 40.5
t-52 14.5q-73 0 -73 -68h-75q0 62 40 96.5t109 34.5q67 0 106 -30.5z" />
    <glyph glyph-name="four.numerator" horiz-adv-x="355" 
d="M279 365v-95h-75v95h-195v66l171 243h99v-246h66v-63h-66zM206 428v49q0 45 2 133h-2q-40 -63 -84 -123l-42 -59h126z" />
    <glyph glyph-name="five.numerator" horiz-adv-x="365" 
d="M124 610l-10 -99h1q28 28 80 28q63 0 100.5 -37.5t37.5 -99.5q0 -64 -42 -102.5t-111 -38.5q-67 0 -107 32t-40 88h76q1 -27 20.5 -42.5t49.5 -15.5q36 0 57 21t21 58q0 35 -20.5 55.5t-53.5 20.5q-28 0 -46.5 -13t-24.5 -37l-75 5l23 241h252v-64h-188z" />
    <glyph glyph-name="six.numerator" horiz-adv-x="365" 
d="M291 651.5q37 -31.5 41 -87.5h-77q-9 57 -64 57q-80 0 -86 -129h1q36 42 98 42q59 0 96 -37t37 -96q0 -62 -41.5 -101t-108.5 -39q-76 0 -116.5 50.5t-40.5 147.5q0 108 43 166t121 58q60 0 97 -31.5zM134.5 452q-20.5 -21 -20.5 -54q0 -35 20 -54.5t53 -19.5t53.5 20.5
t20.5 54.5q0 33 -20 53.5t-52 20.5q-34 0 -54.5 -21z" />
    <glyph glyph-name="seven.numerator" horiz-adv-x="320" 
d="M224.5 457.5q-37.5 -89.5 -57.5 -187.5h-81q25 107 64.5 194.5t81.5 145.5h-223v64h301v-64q-48 -63 -85.5 -152.5z" />
    <glyph glyph-name="eight.numerator" horiz-adv-x="365" 
d="M287.5 651.5q40.5 -31.5 40.5 -82.5q0 -30 -17.5 -53t-50.5 -36v-1q77 -24 77 -98q0 -55 -42.5 -87.5t-112.5 -32.5t-111.5 32.5t-41.5 87.5q0 74 77 98v1q-33 13 -51 35.5t-18 53.5q0 51 40.5 82.5t104.5 31.5q65 0 105.5 -31.5zM130 606.5q-20 -14.5 -20 -39.5
q0 -27 19.5 -43t52.5 -16q34 0 53.5 15.5t19.5 43.5q0 25 -20 39.5t-53 14.5q-32 0 -52 -14.5zM126.5 430q-21.5 -17 -21.5 -45t21 -45t56 -17q36 0 57.5 17t21.5 45t-22 45t-57 17q-34 0 -55.5 -17z" />
    <glyph glyph-name="nine.numerator" horiz-adv-x="365" 
d="M74 293.5q-37 31.5 -41 87.5h77q9 -57 63 -57q81 0 87 129h-1q-36 -42 -98 -42q-59 0 -96 37t-37 96q0 62 41.5 101t108.5 39q76 0 116.5 -50.5t40.5 -147.5q0 -108 -43 -166t-121 -58q-60 0 -97 31.5zM230.5 493q20.5 21 20.5 54q0 35 -20 54.5t-53 19.5t-53.5 -20.5
t-20.5 -54.5q0 -33 20 -53.5t52 -20.5q34 0 54.5 21z" />
    <glyph glyph-name="zero.inferior" unicode="&#x2080;" horiz-adv-x="434" 
d="M350.5 246.5q46.5 -63.5 46.5 -182.5t-46.5 -182.5t-134.5 -63.5t-134.5 63.5t-46.5 182.5t46.5 182.5t134.5 63.5t134.5 -63.5zM142 197.5q-26 -46.5 -26 -133.5q0 -88 26 -135t74 -47t73.5 47t25.5 135q0 87 -25.5 133.5t-73.5 46.5t-74 -46.5z" />
    <glyph glyph-name="one.inferior" unicode="&#x2081;" horiz-adv-x="274" 
d="M122 -172v332h-112v60q60 0 88.5 18.5t35.5 61.5h67v-472h-79z" />
    <glyph glyph-name="two.inferior" unicode="&#x2082;" horiz-adv-x="420" 
d="M329.5 273q44.5 -37 44.5 -97q0 -57 -34 -93t-102 -72q-66 -36 -89 -61t-24 -56h260v-66h-346q-1 6 -1 17q0 49 11.5 83.5t42 65t89.5 63.5q60 32 85 56t25 62q0 31 -21.5 50t-57.5 19q-82 0 -87 -86h-81q2 71 47.5 111.5t120.5 40.5q73 0 117.5 -37z" />
    <glyph glyph-name="three.inferior" unicode="&#x2083;" horiz-adv-x="414" 
d="M326 274.5q44 -35.5 44 -94.5q0 -40 -19.5 -66t-62.5 -43v-2q47 -17 68 -44t21 -71q0 -61 -47.5 -98.5t-123.5 -37.5q-84 0 -129.5 40.5t-45.5 114.5h80q0 -90 95 -90q40 0 65.5 20.5t25.5 52.5q0 39 -28 59t-81 20h-17v63h17q47 0 74.5 20.5t27.5 54.5q0 33 -23.5 52
t-63.5 19q-87 0 -87 -87h-80q0 72 45 112.5t124 40.5q77 0 121 -35.5z" />
    <glyph glyph-name="four.inferior" unicode="&#x2084;" horiz-adv-x="406" 
d="M313 -57v-115h-76v115h-227v69l201 288h102v-293h81v-64h-81zM238 7v61q0 53 2 163h-1l-103 -150l-52 -74h154z" />
    <glyph glyph-name="five.inferior" unicode="&#x2085;" horiz-adv-x="414" 
d="M135 234l-12 -129h2q16 17 41.5 26t52.5 9q72 0 115 -42t43 -113q0 -76 -47 -121.5t-127 -45.5q-75 0 -120 37t-45 101h80q1 -34 24.5 -53.5t60.5 -19.5q43 0 68 26.5t25 71.5t-24.5 70.5t-65.5 25.5q-33 0 -55.5 -16.5t-30.5 -45.5l-78 4l27 281h285v-66h-219z" />
    <glyph glyph-name="six.inferior" unicode="&#x2086;" horiz-adv-x="417" 
d="M329.5 274q41.5 -36 47.5 -99h-81q-12 70 -78 70q-101 0 -108 -163h2q41 54 117 54q69 0 111.5 -42.5t42.5 -112.5q0 -73 -47.5 -118t-123.5 -45q-86 0 -131.5 58t-45.5 171q0 127 48.5 195t136.5 68q68 0 109.5 -36zM148 47q-25 -26 -25 -68q0 -44 24.5 -70t65.5 -26
q40 0 65 27t25 70q0 42 -24.5 67.5t-64.5 25.5q-41 0 -66 -26z" />
    <glyph glyph-name="seven.inferior" unicode="&#x2087;" horiz-adv-x="366" 
d="M253 50.5q-44 -104.5 -67 -222.5h-88q30 127 76.5 230t98.5 174h-263v68h344v-67q-57 -78 -101 -182.5z" />
    <glyph glyph-name="eight.inferior" unicode="&#x2088;" horiz-adv-x="417" 
d="M327 273.5q46 -36.5 46 -94.5q0 -36 -21.5 -63t-60.5 -43v-2q45 -14 68.5 -43t23.5 -71q0 -63 -48 -101t-127 -38t-126.5 38t-47.5 101q0 43 23.5 71.5t68.5 42.5v2q-39 16 -61 43t-22 63q0 58 46 94.5t119 36.5t119 -36.5zM144.5 226q-24.5 -19 -24.5 -50q0 -34 24 -54
t64 -20t64 20t24 54q0 31 -24.5 50t-63.5 19t-63.5 -19zM139.5 17.5q-26.5 -21.5 -26.5 -56.5q0 -36 26 -57t69 -21t69 21t26 57q0 35 -26 56.5t-69 21.5q-42 0 -68.5 -21.5z" />
    <glyph glyph-name="nine.inferior" unicode="&#x2089;" horiz-adv-x="417" 
d="M86 -146q-41 36 -47 99h81q11 -70 77 -70q49 0 77 40.5t31 122.5h-2q-40 -54 -116 -54q-69 0 -112 43t-43 112q0 73 47.5 118t123.5 45q86 0 132 -58t46 -171q0 -127 -49 -195t-137 -68q-68 0 -109 36zM267.5 81.5q25.5 26.5 25.5 67.5q0 44 -24.5 70t-65.5 26
q-40 0 -65 -27t-25 -70q0 -42 24.5 -67.5t64.5 -25.5t65.5 26.5z" />
    <glyph glyph-name="zero.superior" unicode="&#x2070;" horiz-adv-x="434" 
d="M351.5 748.5q46.5 -63.5 46.5 -182.5t-46.5 -182.5t-134.5 -63.5t-134.5 63.5t-46.5 182.5t46.5 182.5t134.5 63.5t134.5 -63.5zM143 699.5q-26 -46.5 -26 -133.5q0 -88 26 -135t74 -47t73.5 47t25.5 135q0 87 -25.5 133.5t-73.5 46.5t-74 -46.5z" />
    <glyph glyph-name="onesuperior" unicode="&#xb9;" horiz-adv-x="274" 
d="M123 330v332h-112v60q60 0 88.5 18.5t35.5 61.5h67v-472h-79z" />
    <glyph glyph-name="twosuperior" unicode="&#xb2;" horiz-adv-x="420" 
d="M329.5 775q44.5 -37 44.5 -97q0 -57 -34 -93t-102 -72q-66 -36 -89 -61t-24 -56h260v-66h-346q-1 6 -1 17q0 49 11.5 83.5t42 65t89.5 63.5q60 32 85 56t25 62q0 31 -21.5 50t-57.5 19q-82 0 -87 -86h-81q2 71 47.5 111.5t120.5 40.5q73 0 117.5 -37z" />
    <glyph glyph-name="threesuperior" unicode="&#xb3;" horiz-adv-x="414" 
d="M326 776.5q44 -35.5 44 -94.5q0 -40 -19.5 -66t-62.5 -43v-2q47 -17 68 -44t21 -71q0 -61 -47.5 -98.5t-123.5 -37.5q-84 0 -129.5 40.5t-45.5 114.5h80q0 -90 95 -90q40 0 65.5 20.5t25.5 52.5q0 39 -28 59t-81 20h-17v63h17q47 0 74.5 20.5t27.5 54.5q0 33 -23.5 52
t-63.5 19q-87 0 -87 -87h-80q0 72 45 112.5t124 40.5q77 0 121 -35.5z" />
    <glyph glyph-name="four.superior" unicode="&#x2074;" horiz-adv-x="406" 
d="M314 445v-115h-76v115h-227v69l201 288h102v-293h81v-64h-81zM239 509v61q0 53 2 163h-1l-103 -150l-52 -74h154z" />
    <glyph glyph-name="five.superior" unicode="&#x2075;" horiz-adv-x="414" 
d="M135 736l-12 -129h2q16 17 41.5 26t52.5 9q72 0 115 -42t43 -113q0 -76 -47 -121.5t-127 -45.5q-75 0 -120 37t-45 101h80q1 -34 24.5 -53.5t60.5 -19.5q43 0 68 26.5t25 71.5t-24.5 70.5t-65.5 25.5q-33 0 -55.5 -16.5t-30.5 -45.5l-78 4l27 281h285v-66h-219z" />
    <glyph glyph-name="six.superior" unicode="&#x2076;" horiz-adv-x="417" 
d="M330.5 776q41.5 -36 47.5 -99h-81q-12 70 -78 70q-101 0 -108 -163h2q41 54 117 54q69 0 111.5 -42.5t42.5 -112.5q0 -73 -47.5 -118t-123.5 -45q-86 0 -131.5 58t-45.5 171q0 127 48.5 195t136.5 68q68 0 109.5 -36zM149 549q-25 -26 -25 -68q0 -44 24.5 -70t65.5 -26
q40 0 65 27t25 70q0 42 -24.5 67.5t-64.5 25.5q-41 0 -66 -26z" />
    <glyph glyph-name="seven.superior" unicode="&#x2077;" horiz-adv-x="366" 
d="M254 552.5q-44 -104.5 -67 -222.5h-88q30 127 76.5 230t98.5 174h-263v68h344v-67q-57 -78 -101 -182.5z" />
    <glyph glyph-name="eight.superior" unicode="&#x2078;" horiz-adv-x="417" 
d="M327 775.5q46 -36.5 46 -94.5q0 -36 -21.5 -63t-60.5 -43v-2q45 -14 68.5 -43t23.5 -71q0 -63 -48 -101t-127 -38t-126.5 38t-47.5 101q0 43 23.5 71.5t68.5 42.5v2q-39 16 -61 43t-22 63q0 58 46 94.5t119 36.5t119 -36.5zM144.5 728q-24.5 -19 -24.5 -50q0 -34 24 -54
t64 -20t64 20t24 54q0 31 -24.5 50t-63.5 19t-63.5 -19zM139.5 519.5q-26.5 -21.5 -26.5 -56.5q0 -36 26 -57t69 -21t69 21t26 57q0 35 -26 56.5t-69 21.5q-42 0 -68.5 -21.5z" />
    <glyph glyph-name="nine.superior" unicode="&#x2079;" horiz-adv-x="417" 
d="M86 356q-41 36 -47 99h81q11 -70 77 -70q49 0 77 40.5t31 122.5h-2q-40 -54 -116 -54q-69 0 -112 43t-43 112q0 73 47.5 118t123.5 45q86 0 132 -58t46 -171q0 -127 -49 -195t-137 -68q-68 0 -109 36zM267.5 583.5q25.5 26.5 25.5 67.5q0 44 -24.5 70t-65.5 26
q-40 0 -65 -27t-25 -70q0 -42 24.5 -67.5t64.5 -25.5t65.5 26.5z" />
    <glyph glyph-name="zero.smcp" horiz-adv-x="478" 
d="M394 486q54 -74 54 -212t-54 -212t-155 -74q-100 0 -154 74t-54 212t54 212t154 74q101 0 155 -74zM154.5 429q-29.5 -54 -29.5 -155q0 -102 29.5 -156t84.5 -54t84.5 54t29.5 156q0 101 -29.5 155t-84.5 54t-84.5 -54z" />
    <glyph glyph-name="one.smcp" horiz-adv-x="478" 
d="M212 0v386h-128v69q68 0 101 21.5t40 71.5h79v-548h-92z" />
    <glyph glyph-name="two.smcp" horiz-adv-x="478" 
d="M372.5 516.5q50.5 -43.5 50.5 -113.5q0 -65 -39 -107t-116 -84q-76 -42 -102.5 -70.5t-27.5 -64.5h299v-77h-399q-1 6 -1 20q0 57 13 97t49 75.5t104 73.5q69 39 97.5 66.5t28.5 70.5q0 36 -24.5 58t-66.5 22q-48 0 -73 -26t-27 -74h-93q2 83 54.5 130t138.5 47
q84 0 134.5 -43.5z" />
    <glyph glyph-name="three.smcp" horiz-adv-x="478" 
d="M374 518.5q51 -41.5 51 -109.5q0 -47 -22.5 -77t-71.5 -49v-2q54 -19 78.5 -51t24.5 -84q0 -47 -25 -82.5t-70 -55.5t-103 -20q-96 0 -148.5 47.5t-52.5 133.5h93q0 -105 108 -105q47 0 75.5 23.5t28.5 61.5q0 44 -32 67.5t-93 23.5h-19v74h20q54 0 85.5 23t31.5 63
q0 38 -27 61t-73 23q-49 0 -74.5 -25.5t-25.5 -75.5h-92q0 83 52.5 130t142.5 47q87 0 138 -41.5z" />
    <glyph glyph-name="four.smcp" horiz-adv-x="478" 
d="M367 134v-134h-90v134h-262v80l232 334h120v-340h92v-74h-92zM279 208v71q0 126 2 188h-2l-118 -173l-61 -86h179z" />
    <glyph glyph-name="five.smcp" horiz-adv-x="478" 
d="M156 471l-14 -150h2q19 20 48 31t61 11q83 0 132.5 -49.5t49.5 -131.5q0 -88 -55 -141t-145 -53q-87 0 -139.5 43t-52.5 118h94q1 -40 28 -62.5t69 -22.5q50 0 78.5 30.5t28.5 83.5q0 52 -28 81t-76 29q-38 0 -63 -18.5t-35 -53.5l-90 6l30 326h328v-77h-251z" />
    <glyph glyph-name="six.smcp" horiz-adv-x="478" 
d="M379.5 518.5q47.5 -41.5 54.5 -115.5h-94q-13 81 -89 81q-56 0 -88.5 -47t-35.5 -143h2q25 33 57.5 48t76.5 15q80 0 129 -49.5t49 -129.5q0 -56 -25 -99t-69.5 -67t-102.5 -24q-98 0 -151 68t-53 199q0 147 56 226t158 79q78 0 125.5 -41.5zM170 254q-29 -30 -29 -78
q0 -52 28 -81.5t76 -29.5q46 0 74 30.5t28 80.5q0 49 -28 78.5t-74 29.5t-75 -30z" />
    <glyph glyph-name="seven.smcp" horiz-adv-x="478" 
d="M317 258q-51 -121 -78 -258h-101q34 147 87.5 267.5t113.5 201.5h-303v79h397v-78q-65 -91 -116 -212z" />
    <glyph glyph-name="eight.smcp" horiz-adv-x="478" 
d="M337.5 540.5q43.5 -19.5 68 -54t24.5 -78.5q0 -42 -25 -73.5t-70 -49.5v-2q51 -17 78.5 -51t27.5 -83q0 -73 -55.5 -117t-146.5 -44t-146 44t-55 117q0 49 27 83t78 51v2q-45 18 -70 49.5t-25 73.5q0 44 24.5 78.5t68 54t98.5 19.5t98.5 -19.5zM166.5 462
q-27.5 -22 -27.5 -59q0 -39 27 -62t73 -23t73 23t27 62q0 37 -27.5 59t-72.5 22t-72.5 -22zM160.5 220q-29.5 -25 -29.5 -65q0 -42 29.5 -66.5t78.5 -24.5q50 0 79 24.5t29 66.5q0 40 -29.5 65t-78.5 25t-78.5 -25z" />
    <glyph glyph-name="nine.smcp" horiz-adv-x="478" 
d="M98.5 29.5q-47.5 41.5 -54.5 115.5h94q14 -81 89 -81q57 0 89 47t35 143h-2q-25 -33 -57.5 -48t-76.5 -15q-79 0 -128.5 49.5t-49.5 129.5q0 56 25 99t69.5 67t102.5 24q99 0 152 -68t53 -199q0 -147 -56 -226t-158 -79q-79 0 -126.5 41.5zM308 294q29 30 29 78
q0 52 -28 81.5t-76 29.5q-45 0 -73.5 -30.5t-28.5 -80.5q0 -49 28 -78.5t74 -29.5t75 30z" />
    <glyph glyph-name="zero.lf.smcp" horiz-adv-x="509" 
d="M410 486q54 -74 54 -212t-54 -212t-155 -74q-100 0 -154 74t-54 212t54 212t154 74q101 0 155 -74zM170.5 429q-29.5 -54 -29.5 -155q0 -102 29.5 -156t84.5 -54t84.5 54t29.5 156q0 101 -29.5 155t-84.5 54t-84.5 -54z" />
    <glyph glyph-name="one.lf.smcp" horiz-adv-x="321" 
d="M141 0v386h-128v69q68 0 101 21.5t40 71.5h79v-548h-92z" />
    <glyph glyph-name="two.lf.smcp" horiz-adv-x="493" 
d="M383.5 516.5q50.5 -43.5 50.5 -113.5q0 -65 -39 -107t-116 -84q-76 -42 -102.5 -70.5t-27.5 -64.5h299v-77h-399q-1 6 -1 20q0 57 13 97t49 75.5t104 73.5q69 39 97.5 66.5t28.5 70.5q0 36 -24.5 58t-66.5 22q-48 0 -73 -26t-27 -74h-93q2 83 54.5 130t138.5 47
q84 0 134.5 -43.5z" />
    <glyph glyph-name="three.lf.smcp" horiz-adv-x="487" 
d="M379 518.5q51 -41.5 51 -109.5q0 -47 -22.5 -77t-71.5 -49v-2q54 -19 78.5 -51t24.5 -84q0 -47 -25 -82.5t-70 -55.5t-103 -20q-96 0 -148.5 47.5t-52.5 133.5h93q0 -105 108 -105q47 0 75.5 23.5t28.5 61.5q0 44 -32 67.5t-93 23.5h-19v74h20q54 0 85.5 23t31.5 63
q0 38 -27 61t-73 23q-49 0 -74.5 -25.5t-25.5 -75.5h-92q0 83 52.5 130t142.5 47q87 0 138 -41.5z" />
    <glyph glyph-name="four.lf.smcp" horiz-adv-x="471" 
d="M365 134v-134h-90v134h-262v80l232 334h120v-340h92v-74h-92zM277 208v71q0 126 2 188h-2l-118 -173l-61 -86h179z" />
    <glyph glyph-name="five.lf.smcp" horiz-adv-x="488" 
d="M161 471l-14 -150h2q19 20 48 31t61 11q83 0 132.5 -49.5t49.5 -131.5q0 -88 -55 -141t-145 -53q-87 0 -139.5 43t-52.5 118h94q1 -40 28 -62.5t69 -22.5q50 0 78.5 30.5t28.5 83.5q0 52 -28 81t-76 29q-38 0 -63 -18.5t-35 -53.5l-90 6l30 326h328v-77h-251z" />
    <glyph glyph-name="six.lf.smcp" horiz-adv-x="489" 
d="M386.5 518.5q47.5 -41.5 54.5 -115.5h-94q-13 81 -89 81q-56 0 -88.5 -47t-35.5 -143h2q25 33 57.5 48t76.5 15q80 0 129 -49.5t49 -129.5q0 -56 -25 -99t-69.5 -67t-102.5 -24q-98 0 -151 68t-53 199q0 147 56 226t158 79q78 0 125.5 -41.5zM177 254q-29 -30 -29 -78
q0 -52 28 -81.5t76 -29.5q46 0 74 30.5t28 80.5q0 49 -28 78.5t-74 29.5t-75 -30z" />
    <glyph glyph-name="seven.lf.smcp" horiz-adv-x="424" 
d="M294 258q-51 -121 -78 -258h-101q34 147 87.5 267.5t113.5 201.5h-303v79h397v-78q-65 -91 -116 -212z" />
    <glyph glyph-name="eight.lf.smcp" horiz-adv-x="489" 
d="M343.5 540.5q43.5 -19.5 68 -54t24.5 -78.5q0 -42 -25 -73.5t-70 -49.5v-2q51 -17 78.5 -51t27.5 -83q0 -73 -55.5 -117t-146.5 -44t-146 44t-55 117q0 49 27 83t78 51v2q-45 18 -70 49.5t-25 73.5q0 44 24.5 78.5t68 54t98.5 19.5t98.5 -19.5zM172.5 462
q-27.5 -22 -27.5 -59q0 -39 27 -62t73 -23t73 23t27 62q0 37 -27.5 59t-72.5 22t-72.5 -22zM166.5 220q-29.5 -25 -29.5 -65q0 -42 29.5 -66.5t78.5 -24.5q50 0 79 24.5t29 66.5q0 40 -29.5 65t-78.5 25t-78.5 -25z" />
    <glyph glyph-name="nine.lf.smcp" horiz-adv-x="489" 
d="M103.5 29.5q-47.5 41.5 -54.5 115.5h94q14 -81 89 -81q57 0 89 47t35 143h-2q-25 -33 -57.5 -48t-76.5 -15q-79 0 -128.5 49.5t-49.5 129.5q0 56 25 99t69.5 67t102.5 24q99 0 152 -68t53 -199q0 -147 -56 -226t-158 -79q-79 0 -126.5 41.5zM313 294q29 30 29 78
q0 52 -28 81.5t-76 29.5q-45 0 -73.5 -30.5t-28.5 -80.5q0 -49 28 -78.5t74 -29.5t75 30z" />
    <glyph glyph-name="periodcentered" unicode="&#xb7;" horiz-adv-x="226" 
d="M59 247v117h108v-117h-108z" />
    <glyph glyph-name="bullet" unicode="&#x2022;" horiz-adv-x="335" 
d="M86.5 275q-33.5 34 -33.5 81q0 48 33.5 81.5t80.5 33.5q48 0 81.5 -33.5t33.5 -81.5q0 -47 -33.5 -81t-81.5 -34q-47 0 -80.5 34z" />
    <glyph glyph-name="ellipsis" unicode="&#x2026;" horiz-adv-x="753" 
d="M59 0v117h108v-117h-108zM323 0v117h108v-117h-108zM586 0v117h108v-117h-108z" />
    <glyph glyph-name="exclamdown" unicode="&#xa1;" horiz-adv-x="275" 
d="M190 508v-106h-104v106h104zM173 333l21 -537h-113l21 537h71z" />
    <glyph glyph-name="overline" unicode="&#x203e;" horiz-adv-x="500" 
d="M0 788v65h500v-65h-500z" />
    <glyph glyph-name="questiondown" unicode="&#xbf;" horiz-adv-x="483" 
d="M328 508v-106h-104v106h104zM142 -195.5q-49 22.5 -76 63.5t-27 95q0 37 8.5 63t31 53.5t67.5 64.5q40 33 58 57t25 55t7 87h78q1 -11 1 -30q0 -54 -8.5 -87t-29.5 -61.5t-64 -65.5q-35 -30 -52 -51t-22.5 -39t-5.5 -44q0 -47 33 -75t90 -28q63 0 97.5 32.5t38.5 96.5h91
q-4 -102 -63 -155.5t-164 -53.5q-65 0 -114 22.5z" />
    <glyph glyph-name="underscoredbl" unicode="&#x2017;" horiz-adv-x="500" 
d="M0 -99v49h500v-49h-500zM0 -228v49h500v-49h-500z" />
    <glyph glyph-name="periodcentered.case" horiz-adv-x="226" 
d="M59 297v117h108v-117h-108z" />
    <glyph glyph-name="exclamdown.case" horiz-adv-x="275" 
d="M190 712v-106h-104v106h104zM173 537l21 -537h-113l21 537h71z" />
    <glyph glyph-name="periodcentered.loclCAT.case" horiz-adv-x="80" 
d="M-156 354v117h108v-117h-108z" />
    <glyph glyph-name="questiondown.case" horiz-adv-x="516" 
d="M328 712v-106h-104v106h104zM142 8.5q-49 22.5 -76 63.5t-27 95q0 37 8.5 63t31 53.5t67.5 64.5q40 33 58 57t25 55t7 87h78q1 -11 1 -30q0 -54 -8.5 -87t-29.5 -61.5t-64 -65.5q-35 -30 -52 -51t-22.5 -39t-5.5 -44q0 -47 33 -75t90 -28q63 0 97.5 32.5t38.5 96.5h91
q-4 -102 -63 -155.5t-164 -53.5q-65 0 -114 22.5z" />
    <glyph glyph-name="slash.case" horiz-adv-x="457" 
d="M62 0l253 712h79l-253 -712h-79z" />
    <glyph glyph-name="periodcentered.loclCAT" horiz-adv-x="155" 
d="M23 297v117h108v-117h-108z" />
    <glyph glyph-name="uni208D" unicode="&#x208d;" horiz-adv-x="220" 
d="M137 194q-19 -74 -19 -158t19 -158.5t62 -152.5h-65q-50 72 -74.5 147t-24.5 164t24.5 164t74.5 147h65q-43 -79 -62 -153z" />
    <glyph glyph-name="parenleftsuperior" unicode="&#x207d;" horiz-adv-x="220" 
d="M137 696q-19 -74 -19 -158t19 -158.5t62 -152.5h-65q-50 72 -74.5 147t-24.5 164t24.5 164t74.5 147h65q-43 -79 -62 -153z" />
    <glyph glyph-name="uni208E" unicode="&#x208e;" horiz-adv-x="220" 
d="M82.5 -121q19.5 74 19.5 157q0 84 -19.5 158t-61.5 153h65q50 -71 74 -146.5t24 -164.5t-24 -164.5t-74 -146.5h-65q42 80 61.5 154z" />
    <glyph glyph-name="parenrightsuperior" unicode="&#x207e;" horiz-adv-x="220" 
d="M82.5 381q19.5 74 19.5 157q0 84 -19.5 158t-61.5 153h65q50 -71 74 -146.5t24 -164.5t-24 -164.5t-74 -146.5h-65q42 80 61.5 154z" />
    <glyph glyph-name="braceleft.case" horiz-adv-x="301" 
d="M209 691.5q-20 -22.5 -20 -76.5v-134q0 -52 -19 -80.5t-65 -42.5v-3q46 -14 65 -42.5t19 -80.5v-135q0 -54 20 -76.5t68 -23.5v-57h-22q-79 0 -113.5 38.5t-34.5 123.5v127q0 44 -15 65t-52 32v61q37 11 52 32t15 65v126q0 85 34.5 123.5t113.5 38.5h22v-56
q-48 -2 -68 -24.5z" />
    <glyph glyph-name="braceright.case" horiz-adv-x="301" 
d="M159.5 733.5q34.5 -38.5 34.5 -123.5v-126q0 -44 15 -65t52 -32v-61q-37 -11 -52 -32t-15 -65v-127q0 -85 -34.5 -123.5t-113.5 -38.5h-22v57q48 1 68 23.5t20 76.5v135q0 52 19 80.5t65 42.5v3q-46 14 -65 42.5t-19 80.5v134q0 54 -20 76.5t-68 24.5v56h22
q79 0 113.5 -38.5z" />
    <glyph glyph-name="bracketleft.case" horiz-adv-x="297" 
d="M161 713v-714h118v-59h-203v832h203v-59h-118z" />
    <glyph glyph-name="bracketright.case" horiz-adv-x="297" 
d="M221 -60h-203v59h118v714h-118v59h203v-832z" />
    <glyph glyph-name="parenleft.case" horiz-adv-x="292" 
d="M174.5 570.5q-27.5 -98.5 -27.5 -214.5t27.5 -214.5t87.5 -201.5h-76q-69 95 -102 195t-33 221t33 221t102 195h76q-60 -103 -87.5 -201.5z" />
    <glyph glyph-name="parenright.case" horiz-adv-x="292" 
d="M208.5 576.5q33.5 -100.5 33.5 -220.5t-33.5 -220.5t-101.5 -195.5h-77q60 103 87.5 201.5t27.5 214.5t-27.5 214.5t-87.5 201.5h77q68 -95 101.5 -195.5z" />
    <glyph glyph-name="bracketleft.sups" horiz-adv-x="222" 
d="M127 794v-512h82v-55h-156v622h156v-55h-82z" />
    <glyph glyph-name="bracketright.sups" horiz-adv-x="222" 
d="M169 227h-156v55h82v512h-82v55h156v-622z" />
    <glyph glyph-name="emdash" unicode="&#x2014;" horiz-adv-x="1000" 
d="M20 253v78h960v-78h-960z" />
    <glyph glyph-name="endash" unicode="&#x2013;" horiz-adv-x="500" 
d="M20 253v78h460v-78h-460z" />
    <glyph glyph-name="uni2015" unicode="&#x2015;" horiz-adv-x="1000" 
d="M20 253v78h960v-78h-960z" />
    <glyph glyph-name="uni2010" unicode="&#x2010;" horiz-adv-x="300" 
d="M30 253v78h240v-78h-240z" />
    <glyph glyph-name="uni00AD" unicode="&#xad;" horiz-adv-x="300" 
d="M30 253v78h240v-78h-240z" />
    <glyph glyph-name="emdash.case" horiz-adv-x="1000" 
d="M20 316v78h960v-78h-960z" />
    <glyph glyph-name="endash.case" horiz-adv-x="500" 
d="M20 316v78h460v-78h-460z" />
    <glyph glyph-name="hyphen.case" horiz-adv-x="300" 
d="M30 316v78h240v-78h-240z" />
    <glyph glyph-name="guillemotleft" unicode="&#xab;" horiz-adv-x="464" 
d="M416 54h-82l-114 200l114 200h82l-111 -200zM244 54h-82l-114 200l114 200h82l-111 -200z" />
    <glyph glyph-name="guillemotright" unicode="&#xbb;" horiz-adv-x="464" 
d="M244 254l-114 -200h-82l111 200l-111 200h82zM416 254l-114 -200h-83l112 200l-112 200h83z" />
    <glyph glyph-name="guilsinglleft" unicode="&#x2039;" horiz-adv-x="292" 
d="M244 54h-82l-114 200l114 200h82l-111 -200z" />
    <glyph glyph-name="guilsinglright" unicode="&#x203a;" horiz-adv-x="292" 
d="M244 254l-114 -200h-82l111 200l-111 200h82z" />
    <glyph glyph-name="quotedblbase" unicode="&#x201e;" horiz-adv-x="398" 
d="M120 -134h-53l35 134h-33v108h99v-108zM281 -134h-53l35 134h-33v108h99v-108z" />
    <glyph glyph-name="quotedblleft" unicode="&#x201c;" horiz-adv-x="398" 
d="M117 712h53l-35 -134h34v-108h-100v108zM278 712h52l-35 -134h34v-108h-99v108z" />
    <glyph glyph-name="quotedblright" unicode="&#x201d;" horiz-adv-x="398" 
d="M120 470h-53l35 134h-33v108h99v-108zM281 470h-53l35 134h-33v108h99v-108z" />
    <glyph glyph-name="quoteleft" unicode="&#x2018;" horiz-adv-x="237" 
d="M117 712h53l-35 -134h34v-108h-100v108z" />
    <glyph glyph-name="quoteright" unicode="&#x2019;" horiz-adv-x="237" 
d="M120 470h-53l35 134h-33v108h99v-108z" />
    <glyph glyph-name="quotesinglbase" unicode="&#x201a;" horiz-adv-x="237" 
d="M120 -134h-53l35 134h-33v108h99v-108z" />
    <glyph glyph-name="guillemotleft.case" horiz-adv-x="464" 
d="M244 156h-82l-114 200l114 200h82l-111 -200zM416 156h-82l-114 200l114 200h82l-111 -200z" />
    <glyph glyph-name="guillemotright.case" horiz-adv-x="464" 
d="M244 356l-114 -200h-82l111 200l-111 200h82zM416 356l-114 -200h-83l112 200l-112 200h83z" />
    <glyph glyph-name="guilsinglleft.case" horiz-adv-x="292" 
d="M244 156h-82l-114 200l114 200h82l-111 -200z" />
    <glyph glyph-name="guilsinglright.case" horiz-adv-x="292" 
d="M244 356l-114 -200h-82l111 200l-111 200h82z" />
    <glyph glyph-name="quoteright.loclFRA" horiz-adv-x="273" 
d="M138 470h-53l35 134h-33v108h99v-108z" />
    <glyph glyph-name="periodcentered.loclCAT.smcp" horiz-adv-x="60" 
d="M-131 283v117h108v-117h-108z" />
    <glyph glyph-name="uni00A0" unicode="&#xa0;" horiz-adv-x="230" 
 />
    <glyph glyph-name="cent" unicode="&#xa2;" horiz-adv-x="562" 
d="M387.5 185.5q25.5 34.5 29.5 80.5h92q-7 -81 -57 -135t-129 -64v-91h-63v91q-96 11 -151.5 81.5t-55.5 184.5q0 115 55 185t152 81v89h63v-89q78 -9 128.5 -61t57.5 -130h-92q-4 45 -29 76.5t-65 40.5v-384q39 10 64.5 44.5zM176 202.5q30 -50.5 84 -62.5v386
q-54 -12 -84 -62.5t-30 -130.5t30 -130.5z" />
    <glyph glyph-name="currency" unicode="&#xa4;" horiz-adv-x="562" 
d="M456 162l76 -81l-59 -55l-75 80q-51 -31 -117 -31t-117 31l-75 -80l-59 55l76 80q-37 54 -37 130t37 130l-76 80l59 55l75 -80q51 31 117 31t117 -31l75 80l59 -55l-76 -81q37 -54 37 -129t-37 -129zM378.5 188.5q36.5 38.5 36.5 102.5t-36.5 102.5t-97.5 38.5t-97 -38.5
t-36 -102.5t36 -102.5t97 -38.5t97.5 38.5z" />
    <glyph glyph-name="Euro" unicode="&#x20ac;" horiz-adv-x="562" 
d="M475 43q-61 -57 -162 -57q-107 0 -173 67t-82 194h-57l11 58h41l-1 32v25h-51l11 58h45q16 130 82 199t175 69q102 0 162 -56t68 -159h-91q-7 65 -43 100t-96 35q-68 0 -109.5 -48t-54.5 -140h256l-11 -58h-250v-25q0 -22 1 -32h238l-11 -58h-222q14 -89 55 -135t107 -46
q59 0 96 36t46 103h92q-11 -105 -72 -162z" />
    <glyph glyph-name="florin" unicode="&#x192;" horiz-adv-x="562" 
d="M541 712v-73q-20 5 -43 5q-44 0 -68.5 -23.5t-38.5 -80.5l-18 -72h110v-68h-126l-103 -407q-17 -68 -40 -107.5t-57.5 -57.5t-86.5 -18q-27 0 -48 6v75q18 -6 40 -6q41 0 64.5 24t40.5 94l101 397h-101v68h117l20 81q23 92 64.5 131t116.5 39q28 0 56 -7z" />
    <glyph glyph-name="franc" unicode="&#x20a3;" horiz-adv-x="562" 
d="M201 404h307v-81h-307v-118h173v-73h-173v-132h-93v132h-84v73h84v469h422v-82h-329v-188z" />
    <glyph glyph-name="lira" unicode="&#x20a4;" horiz-adv-x="562" 
d="M519 76v-76h-495v77q48 0 72.5 32t24.5 102v30h-97v58h97v57h-97v58h97v56q0 108 53 163t152 55q93 0 145.5 -55t52.5 -151h-89q0 61 -28.5 93.5t-80.5 32.5q-56 0 -85 -35t-29 -103v-56h125v-58h-125v-57h125v-58h-125v-29q0 -53 -12.5 -83.5t-40.5 -50.5v-2h360z" />
    <glyph glyph-name="uni20BA" unicode="&#x20ba;" horiz-adv-x="562" 
d="M449.5 77q-87.5 -82 -249.5 -82q-41 0 -88 5v274l-92 -50v71l92 50v86l-92 -50v71l92 50v172h92v-129l168 91v-71l-168 -91v-85l168 91v-71l-168 -91v-240q115 0 176.5 60.5t61.5 179.5h95q0 -159 -87.5 -241z" />
    <glyph glyph-name="peseta" unicode="&#x20a7;" horiz-adv-x="839" 
d="M812 74v-72q-22 -6 -55 -6q-73 0 -106 34t-33 112v296h-67q-7 -90 -71 -142t-177 -52h-116v-244h-92v674h208q104 0 167 -44t78 -122h70v123h88v-123h101v-70h-101v-287q0 -44 16 -63t54 -19q21 0 36 5zM415.5 359.5q40.5 35.5 40.5 99.5t-40.5 99.5t-120.5 35.5h-108
v-270h108q80 0 120.5 35.5z" />
    <glyph glyph-name="uni20BD" unicode="&#x20bd;" horiz-adv-x="562" 
d="M476 620q59 -54 59 -147q0 -94 -59 -148t-170 -54h-122v-67h197v-73h-197v-131h-91v131h-81v73h81v67h-81v75h81v328h213q111 0 170 -54zM184 346h115q70 0 106 33.5t36 93.5t-36 93.5t-106 33.5h-115v-254z" />
    <glyph glyph-name="uni20B9" unicode="&#x20b9;" horiz-adv-x="562" 
d="M423 523h112l-18 -65h-94q-10 -55 -54 -92.5t-114 -50.5v-2q35 -14 61.5 -43.5t51.5 -80.5l93 -189h-105l-84 176q-29 62 -65.5 88.5t-89.5 26.5h-16v67h43q73 0 119 27t59 73h-294l18 65h278q-20 86 -171 86h-125l18 65h489l-18 -65h-162v-2q56 -22 68 -84z" />
    <glyph glyph-name="sterling" unicode="&#xa3;" horiz-adv-x="562" 
d="M519 76v-76h-495v77q48 0 72.5 32t24.5 102v82h-97v77h97v100q0 108 53 163t152 55q93 0 145.5 -55t52.5 -151h-89q0 61 -28.5 93.5t-80.5 32.5q-56 0 -85 -35t-29 -103v-100h125v-77h-125v-81q0 -53 -12.5 -83.5t-40.5 -50.5v-2h360z" />
    <glyph glyph-name="yen" unicode="&#xa5;" horiz-adv-x="562" 
d="M500 360v-59h-172v-56h172v-59h-172v-186h-93v186h-173v59h173v56h-173v59h137l-190 314h106l59 -103l106 -188h2l106 188l60 103h105l-189 -314h136z" />
    <glyph glyph-name="Omega" unicode="&#x2126;" horiz-adv-x="729" 
d="M594 646q86 -80 86 -235q0 -96 -41.5 -173t-117.5 -155v-2h170v-81h-264v84q76 78 116.5 151.5t40.5 165.5q0 118 -60 179.5t-160 61.5q-99 0 -159 -61.5t-60 -179.5q0 -92 40.5 -165.5t116.5 -151.5v-84h-264v81h170v2q-76 78 -117.5 155t-41.5 173q0 155 86 235t229 80
q144 0 230 -80z" />
    <glyph glyph-name="approxequal" unicode="&#x2248;" horiz-adv-x="566" 
d="M243.5 480.5q23.5 -12.5 56.5 -38.5q25 -20 41.5 -29.5t35.5 -9.5q28 0 44 21t16 56h63q0 -66 -33 -106.5t-89 -40.5q-31 0 -56 13t-55 37q-26 20 -42.5 29.5t-35.5 9.5q-28 0 -44 -20.5t-16 -55.5h-63q0 66 33 106.5t89 40.5q32 0 55.5 -12.5zM244 288.5
q24 -12.5 56 -37.5q25 -20 41.5 -29.5t35.5 -9.5q28 0 44 20.5t16 55.5h63q0 -66 -33 -106.5t-89 -40.5q-32 0 -57 13.5t-54 37.5q-26 20 -42.5 29.5t-35.5 9.5q-28 0 -44 -21t-16 -56h-63q0 66 33 106.5t89 40.5q32 0 56 -12.5z" />
    <glyph glyph-name="uni2219" unicode="&#x2219;" horiz-adv-x="344" 
d="M118 247v117h108v-117h-108z" />
    <glyph glyph-name="divide" unicode="&#xf7;" horiz-adv-x="566" 
d="M242 441v85h82v-85h-82zM71 280v73h424v-73h-424zM242 108v85h82v-85h-82z" />
    <glyph glyph-name="uni2215" unicode="&#x2215;" horiz-adv-x="457" 
d="M30 -89l297 834h79l-297 -834h-79z" />
    <glyph glyph-name="uni208C" unicode="&#x208c;" horiz-adv-x="409" 
d="M50 80v62h309v-62h-309zM50 -43v62h309v-62h-309z" />
    <glyph glyph-name="equalsuperior" unicode="&#x207c;" horiz-adv-x="408" 
d="M49 582v62h309v-62h-309zM49 459v62h309v-62h-309z" />
    <glyph glyph-name="greaterequal" unicode="&#x2265;" horiz-adv-x="566" 
d="M495 280l-424 -166v77l342 135v2l-342 135v77l424 -165v-95zM71 0v72h424v-72h-424z" />
    <glyph glyph-name="Delta" unicode="&#x2206;" horiz-adv-x="675" 
d="M5 0l271 712h125l270 -712h-666zM441 358l-103 290h-2l-103 -290l-101 -276h410z" />
    <glyph glyph-name="infinity" unicode="&#x221e;" horiz-adv-x="629" 
d="M575 418q39 -42 39 -110t-39 -110t-101 -42q-53 0 -89.5 25.5t-70.5 70.5q-33 -45 -70 -70.5t-89 -25.5q-63 0 -101.5 42t-38.5 110t38.5 110t101.5 42q52 0 89 -25.5t70 -70.5q34 45 70.5 70.5t89.5 25.5q62 0 101 -42zM221 247.5q25 20.5 54 60.5q-29 40 -54 60.5
t-58 20.5q-36 0 -55.5 -21.5t-19.5 -59.5t19.5 -59.5t55.5 -21.5q33 0 58 20.5zM521 248.5q20 21.5 20 59.5t-20 59.5t-55 21.5q-33 0 -58.5 -21t-53.5 -60q28 -39 53.5 -60t58.5 -21q35 0 55 21.5z" />
    <glyph glyph-name="integral" unicode="&#x222b;" horiz-adv-x="314" 
d="M303 712v-68q-9 3 -29 3q-38 0 -55.5 -20t-17.5 -66v-605q0 -73 -35.5 -109.5t-104.5 -36.5q-30 0 -50 5v68q9 -3 29 -3q38 0 55.5 20t17.5 66v605q0 73 35.5 109.5t103.5 36.5q31 0 51 -5z" />
    <glyph glyph-name="lessequal" unicode="&#x2264;" horiz-adv-x="566" 
d="M153 328v-2l342 -135v-77l-424 166v95l424 165v-77zM495 0h-424v72h424v-72z" />
    <glyph glyph-name="logicalnot" unicode="&#xac;" horiz-adv-x="566" 
d="M422 140v240h-351v74h424v-314h-73z" />
    <glyph glyph-name="mu" unicode="&#xb5;" horiz-adv-x="583" 
d="M509.5 83.5q10.5 -16.5 36.5 -16.5q12 0 24 3v-67q-27 -9 -60 -9q-42 0 -64.5 19.5t-28.5 62.5h-2q-18 -38 -56 -60.5t-86 -22.5q-74 0 -107 42v-220h-88v693h88v-301q0 -77 28.5 -110.5t84.5 -33.5q57 0 94.5 41t37.5 114v290h88v-363q0 -45 10.5 -61.5z" />
    <glyph glyph-name="minus" unicode="&#x2212;" horiz-adv-x="566" 
d="M71 280v73h424v-73h-424z" />
    <glyph glyph-name="uni208B" unicode="&#x208b;" horiz-adv-x="409" 
d="M50 18v63h309v-63h-309z" />
    <glyph glyph-name="uni207B" unicode="&#x207b;" horiz-adv-x="408" 
d="M49 520v63h309v-63h-309z" />
    <glyph glyph-name="multiply" unicode="&#xd7;" horiz-adv-x="566" 
d="M334 306l193 -192l-51 -51l-193 192l-192 -192l-52 51l193 192l-193 193l52 51l192 -192l193 192l51 -51z" />
    <glyph glyph-name="notequal" unicode="&#x2260;" horiz-adv-x="566" 
d="M292 271h203v-74h-249l-80 -127h-75l80 127h-100v74h146l57 91h-203v74h249l80 127h76l-80 -127h99v-74h-145z" />
    <glyph glyph-name="partialdiff" unicode="&#x2202;" horiz-adv-x="601" 
d="M466.5 636.5q66.5 -89.5 66.5 -260.5q0 -133 -34 -220t-92 -128.5t-131 -41.5q-110 0 -170 64.5t-60 171.5q0 72 28 130.5t81 92t124 33.5q58 0 99 -24t61 -60h2q1 9 1 29q0 67 -20.5 118t-58 78.5t-86.5 27.5q-100 0 -114 -102h-93q9 84 60 132.5t144 48.5
q126 0 192.5 -89.5zM179 351.5q-40 -51.5 -40 -131.5q0 -73 35.5 -114t102.5 -41q69 0 109.5 50.5t40.5 128.5q0 72 -37.5 115.5t-103.5 43.5q-67 0 -107 -51.5z" />
    <glyph glyph-name="perthousand" unicode="&#x2030;" horiz-adv-x="1014" 
d="M97 -30l422 734h70l-422 -734h-70zM264 645q35 -43 35 -122t-35 -122.5t-99 -43.5q-65 0 -100 43.5t-35 122.5t35 122t100 43q64 0 99 -43zM118.5 601.5q-16.5 -27.5 -16.5 -78.5t16.5 -78.5t46.5 -27.5q29 0 45.5 27.5t16.5 78.5t-16.5 78.5t-45.5 27.5
q-30 0 -46.5 -27.5zM620.5 274q35.5 -43 35.5 -122t-35.5 -122t-99.5 -43q-65 0 -100 43t-35 122t35 122t100 43q64 0 99.5 -43zM949 274q35 -43 35 -122t-35 -122t-100 -43q-64 0 -99.5 43t-35.5 122t35.5 122t99.5 43q65 0 100 -43zM474.5 230.5q-16.5 -27.5 -16.5 -78.5
t16.5 -78.5t46.5 -27.5q29 0 45.5 27.5t16.5 78.5t-16.5 78.5t-45.5 27.5q-30 0 -46.5 -27.5zM803.5 230.5q-16.5 -27.5 -16.5 -78.5t16.5 -78.5t45.5 -27.5q30 0 46.5 27.5t16.5 78.5t-16.5 78.5t-46.5 27.5q-29 0 -45.5 -27.5z" />
    <glyph glyph-name="uni208A" unicode="&#x208a;" horiz-adv-x="409" 
d="M359 81v-63h-123v-118h-63v118h-123v63h123v119h63v-119h123z" />
    <glyph glyph-name="plusminus" unicode="&#xb1;" horiz-adv-x="566" 
d="M495 381v-74h-176v-171h-72v171h-176v74h176v172h72v-172h176zM71 0v74h424v-74h-424z" />
    <glyph glyph-name="plussuperior" unicode="&#x207a;" horiz-adv-x="408" 
d="M358 583v-63h-123v-118h-63v118h-123v63h123v119h63v-119h123z" />
    <glyph glyph-name="product" unicode="&#x220f;" horiz-adv-x="661" 
d="M474 -120v750h-287v-750h-92v832h471v-832h-92z" />
    <glyph glyph-name="radical" unicode="&#x221a;" horiz-adv-x="575" 
d="M203 -120l-96 408h-82v72h141l95 -397h2l213 749h79l-238 -832h-114z" />
    <glyph glyph-name="summation" unicode="&#x2211;" horiz-adv-x="486" 
d="M137 631l200 -338l-200 -332h314v-81h-416v81l203 332l-203 338v81h416v-81h-314z" />
    <glyph glyph-name="lozenge" unicode="&#x25ca;" horiz-adv-x="597" 
d="M356 0h-115l-201 356l201 356h115l201 -356zM299 64l167 292l-167 292l-168 -292z" />
    <glyph glyph-name="uniF8FF" unicode="&#xf8ff;" horiz-adv-x="600" 
d="M568 742q35 -35 35 -96v-580q0 -61 -35 -96t-96 -35h-321q-60 0 -95.5 35t-35.5 96v580q0 61 35.5 96t95.5 35h321q61 0 96 -35zM91 706q-22 -22 -22 -60v-580q0 -38 22 -60t60 -22h321q38 0 60 22t22 60v580q0 38 -22 60t-60 22h-321q-38 0 -60 -22zM433 606
q47 -40 47 -107q0 -42 -16 -71t-64 -72q-30 -26 -44 -45t-19 -43t-5 -66h-72v27q0 60 14.5 92t61.5 76q36 34 46.5 53.5t10.5 47.5q0 35 -22.5 55.5t-61.5 20.5q-89 0 -94 -98h-84q4 83 50 126.5t128 43.5q77 0 124 -40zM249 65v91h94v-91h-94z" />
    <glyph glyph-name="brokenbar" unicode="&#xa6;" horiz-adv-x="273" 
d="M96 382v350h81v-350h-81zM96 -205v350h81v-350h-81z" />
    <glyph glyph-name="paragraph" unicode="&#xb6;" horiz-adv-x="588" 
d="M486 650v-770h-66v770h-87v-770h-66v428h-35q-88 0 -140 54.5t-52 147.5q0 92 52 147t140 55h334v-62h-80z" />
    <glyph glyph-name="copyright" unicode="&#xa9;" horiz-adv-x="810" 
d="M592.5 678q81.5 -46 126.5 -129.5t45 -192.5t-45 -192.5t-126.5 -129.5t-187.5 -46t-187.5 46t-126 129.5t-44.5 192.5t44.5 192.5t126 129.5t187.5 46t187.5 -46zM241 637q-71 -40 -110 -112.5t-39 -168.5t39 -168.5t110 -112.5t164 -40t164 40t110 112.5t39 168.5
t-39 168.5t-110 112.5t-164 40t-164 -40zM540.5 552q50.5 -47 54.5 -122h-75q-4 47 -34 75.5t-80 28.5q-60 0 -94.5 -47.5t-34.5 -130.5q0 -82 34.5 -130t93.5 -48q48 0 79.5 29t37.5 79h76q-8 -80 -59 -126.5t-134 -46.5q-95 0 -149.5 65t-54.5 178t55 178t150 65
q84 0 134.5 -47z" />
    <glyph glyph-name="registered" unicode="&#xae;" horiz-adv-x="587" 
d="M423.5 694q56.5 -32 87.5 -89.5t31 -133.5t-31 -134t-87.5 -90t-130.5 -32t-130 32t-87 90t-31 134t31 133.5t87 89.5t130 32t130.5 -32zM180.5 665.5q-48.5 -27.5 -75.5 -78t-27 -116.5t27 -116.5t75.5 -78t112.5 -27.5t112.5 27.5t75.5 78t27 116.5t-27 116.5t-75.5 78
t-112.5 27.5t-112.5 -27.5zM378.5 610q27.5 -24 27.5 -67q0 -28 -15.5 -50t-40.5 -27v-2q15 -5 24.5 -16t18.5 -36l34 -97h-58l-27 82q-8 25 -21.5 35.5t-37.5 10.5h-48v-128h-54v319h117q53 0 80.5 -24zM235 489h50q66 0 66 51q0 23 -15.5 35.5t-46.5 12.5h-54v-99z" />
    <glyph glyph-name="uni2117" unicode="&#x2117;" horiz-adv-x="810" 
d="M592.5 678q81.5 -46 126.5 -129.5t45 -192.5t-45 -192.5t-126.5 -129.5t-187.5 -46t-187.5 46t-126 129.5t-44.5 192.5t44.5 192.5t126 129.5t187.5 46t187.5 -46zM241 637q-71 -40 -110 -112.5t-39 -168.5t39 -168.5t110 -112.5t164 -40t164 40t110 112.5t39 168.5
t-39 168.5t-110 112.5t-164 40t-164 -40zM566 546q46 -39 46 -109q0 -69 -46 -108.5t-131 -39.5h-94v-174h-74v470h168q85 0 131 -39zM341 354h89q52 0 79 21t27 62t-27 62t-79 21h-89v-166z" />
    <glyph glyph-name="section" unicode="&#xa7;" horiz-adv-x="578" 
d="M420 682.5q48 -43.5 52 -127.5h-89q-3 97 -100 97q-42 0 -66.5 -21t-24.5 -57q0 -27 10.5 -42.5t35 -28.5t85.5 -39q75 -33 114 -57.5t58 -57t19 -82.5q0 -93 -85 -145v-2q49 -39 49 -111q0 -74 -51.5 -116.5t-139.5 -42.5q-96 0 -148 45t-53 133h89q3 -104 111 -104
q47 0 73.5 22.5t26.5 62.5q0 29 -13 47.5t-41.5 34.5t-92.5 45q-66 31 -101.5 54.5t-54.5 55.5t-19 80q0 45 21 81.5t62 61.5v2q-47 38 -47 103q0 68 51 110t132 42q89 0 137 -43.5zM149 337q0 -40 28 -68t104 -62q45 -20 92 -46q26 17 41 41.5t15 54.5q0 27 -10.5 47
t-38 38.5t-78.5 41.5q-47 20 -98 46q-55 -39 -55 -93z" />
    <glyph glyph-name="trademark" unicode="&#x2122;" horiz-adv-x="801" 
d="M188 653v-297h-67v297h-116v59h299v-59h-116zM690 356v170q0 85 1 126h-2q-4 -14 -9 -29.5l-11 -32.5q-6 -21 -20 -63l-57 -171h-77l-56 171q-12 33 -32 99l-8 26h-2l1 -126v-170h-64v356h105l52 -156l12 -37l29 -97h2q6 17 16 53l26 81l53 156h105v-356h-64z" />
    <glyph glyph-name="degree" unicode="&#xb0;" horiz-adv-x="319" 
d="M244.5 686.5q35.5 -35.5 35.5 -85.5t-35.5 -85t-85.5 -35q-49 0 -84.5 35.5t-35.5 84.5q0 50 35 85.5t85 35.5t85.5 -35.5zM112.5 649q-19.5 -20 -19.5 -48q0 -27 19.5 -46.5t46.5 -19.5q28 0 48 19.5t20 46.5q0 28 -20 48t-48 20q-27 0 -46.5 -20z" />
    <glyph glyph-name="estimated" unicode="&#x212e;" horiz-adv-x="860" 
d="M634.5 639q86.5 -49 132.5 -131.5t46 -180.5h-611q-6 0 -9.5 -4t-3.5 -9v-166q0 -17 3 -26.5t12 -17.5q93 -91 227 -91q72 0 135 30t103 79h69q-40 -55 -118 -94.5t-189 -39.5q-115 0 -202 44.5t-134.5 123.5t-47.5 180q0 100 46.5 180t133.5 126t204 46t203.5 -49z
M204 569q-9 -9 -12 -17.5t-3 -23.5v-167q0 -5 3.5 -8.5t9.5 -3.5h455q6 0 9.5 3.5t3.5 8.5v167q0 15 -3 23.5t-12 17.5q-94 93 -224 93q-134 0 -227 -93z" />
    <glyph glyph-name="uni2113" unicode="&#x2113;" horiz-adv-x="440" 
d="M210.5 81q17.5 -21 57.5 -21q23 0 49 7v-67q-31 -9 -70 -9q-73 0 -107.5 38t-34.5 119v44q-26 0 -56 7v54q34 -6 56 -6v234q0 79 14.5 124t43 64t73.5 19q60 0 96.5 -46.5t36.5 -146.5q0 -125 -46.5 -197.5t-129.5 -95.5v-53q0 -47 17.5 -68zM205.5 598
q-12.5 -27 -12.5 -100v-236q56 22 86.5 79.5t30.5 153.5q0 130 -63 130q-29 0 -41.5 -27z" />
    <glyph glyph-name="dagger" unicode="&#x2020;" horiz-adv-x="536" 
d="M482 522v-74h-169v-568h-90v568h-169v74h169v190h90v-190h169z" />
    <glyph glyph-name="daggerdbl" unicode="&#x2021;" horiz-adv-x="536" 
d="M482 523v-74h-169v-264h169v-74h-169v-231h-90v231h-169v74h169v264h-169v74h169v189h90v-189h169z" />
    <glyph glyph-name="interrobang" unicode="&#x203d;" horiz-adv-x="516" 
d="M429 596q48 -44 48 -111q0 -37 -8 -63.5t-30.5 -53.5t-67.5 -62q-35 -27 -50.5 -44t-22 -38.5t-6.5 -58.5h-72l-12 397q-77 -23 -83 -113h-92q4 83 48.5 132.5t123.5 63.5l-2 67h99l-2 -64q81 -8 129 -52zM372 424.5q11 22.5 11 57.5q0 34 -22.5 56.5t-63.5 29.5l-8 -235
h2l33 33q37 36 48 58.5zM306 106v-106h-103v106h103z" />
    <glyph glyph-name="ampersand.smcp" horiz-adv-x="606" 
d="M430 55q-33 -32 -79 -49.5t-97 -17.5q-96 0 -150.5 43.5t-54.5 115.5q0 54 29.5 94t92.5 69q-37 36 -50.5 62.5t-13.5 63.5q0 56 41.5 91t107.5 35q68 0 108.5 -33.5t40.5 -89.5q0 -46 -25 -79t-85 -64l129 -125q31 55 31 133h86q-1 -53 -15.5 -101.5t-41.5 -88.5
l118 -114h-114zM206.5 478q-18.5 -16 -19.5 -45q0 -22 12 -40.5t47 -51.5q47 24 63 45t15 48q1 27 -17 43.5t-50 16.5t-50.5 -16zM377 107l-157 152q-46 -23 -64 -49.5t-18 -60.5q1 -40 33 -65t86 -25q70 0 120 48z" />
    <glyph glyph-name="acute" unicode="&#xb4;" horiz-adv-x="299" 
d="M50 569l86 143h113l-123 -143h-76z" />
    <glyph glyph-name="breve" unicode="&#x2d8;" horiz-adv-x="411" 
d="M315.5 606.5q-40.5 -37.5 -109.5 -37.5t-110 37.5t-46 105.5h66q4 -39 28 -60t62 -21t61.5 21t28.5 60h65q-5 -68 -45.5 -105.5z" />
    <glyph glyph-name="caron" unicode="&#x2c7;" horiz-adv-x="425" 
d="M164 569l-114 143h89l74 -93l73 93h89l-114 -143h-97z" />
    <glyph glyph-name="cedilla" unicode="&#xb8;" horiz-adv-x="315" 
d="M185 -59q33 0 56.5 -20.5t23.5 -53.5q0 -37 -28.5 -62t-81.5 -25q-54 0 -105 27l18 37q36 -21 78 -21q27 0 41.5 10.5t14.5 30.5q0 19 -14.5 30.5t-38.5 11.5q-17 0 -31 -6l-18 20l53 80h46l-40 -62q18 3 26 3z" />
    <glyph glyph-name="circumflex" unicode="&#x2c6;" horiz-adv-x="425" 
d="M213 662l-74 -93h-89l114 143h97l114 -143h-89z" />
    <glyph glyph-name="dieresis" unicode="&#xa8;" horiz-adv-x="377" 
d="M50 613v99h82v-99h-82zM245 613v99h82v-99h-82z" />
    <glyph glyph-name="dotaccent" unicode="&#x2d9;" horiz-adv-x="188" 
d="M50 613v99h88v-99h-88z" />
    <glyph glyph-name="hungarumlaut" unicode="&#x2dd;" horiz-adv-x="470" 
d="M50 569l106 143h104l-136 -143h-74zM210 569l106 143h104l-136 -143h-74z" />
    <glyph glyph-name="macron" unicode="&#xaf;" horiz-adv-x="384" 
d="M50 616v64h284v-64h-284z" />
    <glyph glyph-name="ogonek" unicode="&#x2db;" horiz-adv-x="258" 
d="M146 -54.5q-17 -23.5 -17 -47.5q0 -36 40 -36q22 0 39 7v-53q-25 -10 -59 -10q-50 0 -74.5 21t-24.5 59q0 33 19 59.5t62 56.5l74 -2q-42 -31 -59 -54.5z" />
    <glyph glyph-name="ring" unicode="&#x2da;" horiz-adv-x="301" 
d="M221.5 736.5q29.5 -29.5 29.5 -70.5q0 -42 -29.5 -71.5t-71.5 -29.5q-41 0 -70.5 29.5t-29.5 71.5q0 41 29.5 70.5t70.5 29.5q42 0 71.5 -29.5zM110 707q-17 -17 -17 -41t17 -41t40 -17q25 0 41.5 16.5t16.5 41.5q0 24 -16.5 41t-41.5 17q-23 0 -40 -17z" />
    <glyph glyph-name="tilde" unicode="&#x2dc;" horiz-adv-x="445" 
d="M365 621q-27 -30 -71 -30q-22 0 -40.5 7.5t-41.5 21.5q-22 12 -33.5 17t-24.5 5q-41 0 -46 -51h-58q3 55 30 85t71 30q22 0 40.5 -7.5t41.5 -21.5q22 -12 33.5 -17t24.5 -5q40 0 46 51h58q-3 -55 -30 -85z" />
    <glyph glyph-name="acute.cap" horiz-adv-x="299" 
d="M50 760l86 138h113l-123 -138h-76z" />
    <glyph glyph-name="breve.cap" horiz-adv-x="411" 
d="M315.5 793q-40.5 -37 -109.5 -37q-70 0 -110.5 37t-45.5 105h66q4 -38 28 -59t62 -21t61.5 21t28.5 59h65q-5 -68 -45.5 -105z" />
    <glyph glyph-name="caron.alt" horiz-adv-x="209" 
d="M50 536l29 176h80l-55 -176h-54z" />
    <glyph glyph-name="caron.cap" horiz-adv-x="425" 
d="M164 760l-114 138h89l74 -88l73 88h89l-114 -138h-97z" />
    <glyph glyph-name="caron.alt.case" horiz-adv-x="209" 
d="M50 494l29 218h80l-55 -218h-54z" />
    <glyph glyph-name="circumflex.cap" horiz-adv-x="425" 
d="M261 898l114 -138h-89l-74 89l-73 -89h-89l114 138h97z" />
    <glyph glyph-name="dieresis.cap" horiz-adv-x="377" 
d="M50 775v99h82v-99h-82zM245 775v99h82v-99h-82z" />
    <glyph glyph-name="dotaccent.cap" horiz-adv-x="188" 
d="M50 769v99h88v-99h-88z" />
    <glyph glyph-name="grave.cap" horiz-adv-x="299" 
d="M249 760h-76l-123 138h113z" />
    <glyph glyph-name="hungarumlaut.cap" horiz-adv-x="485" 
d="M50 756l106 142h104l-136 -142h-74zM210 756l106 142h104l-136 -142h-74z" />
    <glyph glyph-name="macron.cap" horiz-adv-x="384" 
d="M50 788v65h284v-65h-284z" />
    <glyph glyph-name="breve.narrow" horiz-adv-x="378" 
d="M288.5 606.5q-36.5 -37.5 -99.5 -37.5t-99.5 37.5t-39.5 105.5h63q3 -40 22.5 -61t53.5 -21t53.5 21t22.5 61h63q-3 -68 -39.5 -105.5z" />
    <glyph glyph-name="circumflex.narrow" horiz-adv-x="396" 
d="M261 570l-63 93l-62 -93h-86l100 142h96l100 -142h-85z" />
    <glyph glyph-name="dieresis.narrow" horiz-adv-x="335" 
d="M50 613v99h82v-99h-82zM204 613v99h81v-99h-81z" />
    <glyph glyph-name="macron.narrow" horiz-adv-x="357" 
d="M50 617v65h257v-65h-257z" />
    <glyph glyph-name="tilde.narrow" horiz-adv-x="402" 
d="M325.5 621q-24.5 -30 -66.5 -30q-20 0 -34 7.5t-35 22.5q-18 12 -27 17t-20 5q-37 0 -42 -52h-51q2 55 26.5 85t66.5 30q20 0 34 -7.5t35 -22.5q16 -12 26 -17.5t21 -5.5q19 0 29 13t12 40h52q-2 -55 -26.5 -85z" />
    <glyph glyph-name="ring.cap" horiz-adv-x="301" 
d="M221.5 923.5q29.5 -29.5 29.5 -71.5q0 -41 -29.5 -70.5t-71.5 -29.5q-41 0 -70.5 29.5t-29.5 70.5q0 42 29.5 71.5t70.5 29.5q42 0 71.5 -29.5zM110 893q-17 -17 -17 -41t17 -40.5t40 -16.5q25 0 41.5 16.5t16.5 40.5t-16.5 41t-41.5 17q-23 0 -40 -17z" />
    <glyph glyph-name="cedilla.ss01" horiz-adv-x="309" 
d="M50 -211l129 162h80l-99 -162h-110z" />
    <glyph glyph-name="tilde.cap" horiz-adv-x="445" 
d="M365 807q-27 -30 -71 -30q-22 0 -40.5 7.5t-41.5 21.5q-22 12 -33.5 17t-24.5 5q-41 0 -46 -51h-58q3 55 30 85t71 30q22 0 40.5 -7.5t41.5 -21.5q22 -12 33.5 -17t24.5 -5q40 0 46 51h58q-3 -55 -30 -85z" />
    <glyph glyph-name="commaaccent" unicode="&#x326;" horiz-adv-x="0" 
d="M88 -257h-38l38 103h-34v89h89v-89z" />
    <glyph glyph-name="uni0312" unicode="&#x312;" horiz-adv-x="0" 
d="M139 672v-89h-89v89l55 103h38l-38 -103h34z" />
    <glyph glyph-name="uni02BC" unicode="&#x2bc;" horiz-adv-x="237" 
d="M120 470h-53l35 134h-33v108h99v-108z" />
    <glyph glyph-name="uni02C9" unicode="&#x2c9;" horiz-adv-x="384" 
d="M50 616v64h284v-64h-284z" />
    <glyph glyph-name="uniFEFF" unicode="&#xfeff;" horiz-adv-x="0" 
 />
    <glyph glyph-name="uni20BC" unicode="&#x20bc;" horiz-adv-x="656" 
d="M103.5 526q57.5 69 180.5 75v111h87v-111q124 -6 181.5 -75t57.5 -216v-310h-87v308q0 109 -35 156.5t-117 51.5v-516h-87v516q-81 -4 -116 -51.5t-35 -156.5v-308h-87v310q0 147 57.5 216z" />
    <glyph glyph-name="bracketleftinferior" horiz-adv-x="222" 
d="M127 292v-512h82v-55h-156v622h156v-55h-82z" />
    <glyph glyph-name="bracketrightinferior" horiz-adv-x="222" 
d="M169 -275h-156v55h82v512h-82v55h156v-622z" />
    </font>
</defs>
</svg>
